Безумный Макс: Дорога ярости / Mad Max: Fury Road (2015) BDRip 720p от NNNB | D,P,A

Ответить на тему
Статистика раздачи [Обновить пиров]
Скачал: [ 10 ]
 
   
 
 
Автор
Сообщение

-=DoC(ToP)=-™ ®

Стаж: 5 лет 1 месяц

Сообщений: 472

Откуда: СЕВАСТОПОЛЬ

Создавать темы 03-Ноя-2015 16:16

[Цитировать] 

Безумный Макс: Дорога ярости / Mad Max: Fury Road
«Какой чудесный день»
Русское название: Безумный Макс: Дорога ярости
Оригинальное название: Mad Max: Fury Road
Год выпуска: 2015
Жанр: боевик, фантастика, приключения
Выпущено: Австралия, США
Режиссер: Джордж Миллер
В ролях: Том Харди , Шарлиз Терон , Николас Холт , Хью Кияс-Бёрн , Райли Кио , Роузи Хантингтон-Уайтли , Зои Кравиц , Эбби Ли , Кортни Итон , Нэйтан Джонс , Джош Хелман , Джон Ховард
Перевод: Дублированный, Профессиональный многоголосый, Авторский (одноголосый)

Сюжет фильма:
Преследуемый призраками беспокойного прошлого, Макс уверен, что лучший способ выжить - скитаться в одиночестве. Несмотря на это, он присоединяется к бунтарям, бегущим через всю пустыню на боевой фуре, под предводительством военачальника Фуриосы.
Они пытаются сбежать из Цитадели, страдающей от тирании Несмертного Джо, у которого они забрали кое-что очень ценное. Разъярённый военачальник бросает все свои силы на погоню за мятежниками, ступая на дорогу войны - дорогу ярости.

Качество: BDRip 720p
Формат: AVC (библиотека кодирования x.264)
Контейнер (Расширение): MKV
Видео: 1280x534, 8190 Кбит/сек, 23,976 кадр/сек, 0,500 Бит/[Пиксели*Кадры]
Аудио №1: русский / AC3 / 5.1 / 48 kHz / 640 kbps / |Дублированный|
Аудио №2: русский / AC3 / 5.1 / 48 kHz / 640 kbps / |Профессиональный многоголосый - Омикрон|
Аудио №3: русский / AC3 / 5.1 / 48 kHz / 640 kbps / |Авторский, Ю. Сербин|
Аудио №4: русский / AC3 / 5.1 / 48 kHz / 640 kbps / |Авторский, Д.Есарев|
Аудио №5: русский / AC3 / 5.1 / 48 kHz / 640 kbps / |Авторский, А. Гаврилов|
Аудио №6: русский / AC3 / 5.1 / 48 kHz / 640 kbps / |Авторский, А.Матвеев|
Аудио №7: русский / AC3 / 5.1 / 48 kHz / 448 kbps / |Авторский, А.Карповский|
Аудио №8: английский / AC3 / 5.1 / 48 kHz / 640 kbps /
Субтитры: русские (Forced),русские (Full), русские (Notabenoid), русские (Notabenoid_2), русские (A.Matveev), английские (Full), английские (SDH)
Навигация по главам(Чаптеры): есть
Продолжительность: 02:00:23
Автор рипа: Сообщество:

MediaInfo

Format : Matroska
Format version : Version 2
File size : 11.0 GiB
Duration : 2h 0mn
Overall bit rate : 13.1 Mbps
Movie name : Mad Max.Fury Road.(2015).BDRip.720p.[denis100]
Encoded date : UTC 2015-11-02 14:46:27
Writing application : mkvmerge v5.8.0 ('No Sleep / Pillow') built on Sep 2 2012 15:37:04
Writing library : libebml v1.2.3 + libmatroska v1.3.0
Video
ID : 1
Format : AVC
Format/Info : Advanced Video Codec
Format profile : [email protected]
Format settings, CABAC : Yes
Format settings, ReFrames : 11 frames
Codec ID : V_MPEG4/ISO/AVC
Duration : 2h 0mn
Bit rate : 8 190 Kbps
Width : 1 280 pixels
Height : 534 pixels
Display aspect ratio : 2.40:1
Frame rate : 23.976 fps
Color space : YUV
Chroma subsampling : 4:2:0
Bit depth : 8 bits
Scan type : Progressive
Bits/(Pixel*Frame) : 0.500
Stream size : 6.66 GiB (60%)
Title : Mad Max.Fury Road.(2015).BDRip.720p.[denis100].NNNB
Writing library : x264 core 148 r2597 e86f3a1
Encoding settings : cabac=1 / ref=11 / deblock=1:-3:-3 / analyse=0x3:0x133 / me=umh / subme=11 / psy=1 / psy_rd=1.00:0.05 / mixed_ref=1 / me_range=32 / chroma_me=1 / trellis=2 / 8x8dct=1 / cqm=0 / deadzone=21,11 / fast_pskip=0 / chroma_qp_offset=-3 / threads=6 / lookahead_threads=1 / sliced_threads=0 / nr=0 / decimate=1 / interlaced=0 / bluray_compat=0 / constrained_intra=0 / bframes=10 / b_pyramid=2 / b_adapt=2 / b_bias=0 / direct=3 / weightb=1 / open_gop=0 / weightp=2 / keyint=240 / keyint_min=23 / scenecut=40 / intra_refresh=0 / rc=2pass / mbtree=0 / bitrate=8190 / ratetol=1.0 / qcomp=0.60 / qpmin=0 / qpmax=69 / qpstep=4 / cplxblur=20.0 / qblur=0.5 / ip_ratio=1.40 / pb_ratio=1.30 / aq=2:0.90
Language : English
Default : Yes
Forced : No
Audio #1
ID : 2
Format : AC-3
Format/Info : Audio Coding 3
Mode extension : CM (complete main)
Codec ID : A_AC3
Duration : 2h 0mn
Bit rate mode : Constant
Bit rate : 640 Kbps
Channel(s) : 6 channels
Channel positions : Front: L C R, Side: L R, LFE
Sampling rate : 48.0 KHz
Bit depth : 16 bits
Compression mode : Lossy
Stream size : 551 MiB (5%)
Title : Дублированный
Language : Russian
Default : Yes
Forced : No
Audio #2
ID : 3
Format : AC-3
Format/Info : Audio Coding 3
Mode extension : CM (complete main)
Codec ID : A_AC3
Duration : 2h 0mn
Bit rate mode : Constant
Bit rate : 640 Kbps
Channel(s) : 6 channels
Channel positions : Front: L C R, Side: L R, LFE
Sampling rate : 48.0 KHz
Bit depth : 16 bits
Compression mode : Lossy
Stream size : 551 MiB (5%)
Title : Многоголосый закадровый, Омикрон
Language : Russian
Default : No
Forced : No
Audio #3
ID : 4
Format : AC-3
Format/Info : Audio Coding 3
Mode extension : CM (complete main)
Codec ID : A_AC3
Duration : 2h 0mn
Bit rate mode : Constant
Bit rate : 640 Kbps
Channel(s) : 6 channels
Channel positions : Front: L C R, Side: L R, LFE
Sampling rate : 48.0 KHz
Bit depth : 16 bits
Compression mode : Lossy
Stream size : 551 MiB (5%)
Title : Авторский, Ю. Сербин
Language : Russian
Default : No
Forced : No
Audio #4
ID : 5
Format : AC-3
Format/Info : Audio Coding 3
Mode extension : CM (complete main)
Codec ID : A_AC3
Duration : 2h 0mn
Bit rate mode : Constant
Bit rate : 640 Kbps
Channel(s) : 6 channels
Channel positions : Front: L C R, Side: L R, LFE
Sampling rate : 48.0 KHz
Bit depth : 16 bits
Compression mode : Lossy
Stream size : 551 MiB (5%)
Title : Авторский, Д.Есарев
Language : Russian
Default : No
Forced : No
Audio #5
ID : 6
Format : AC-3
Format/Info : Audio Coding 3
Mode extension : CM (complete main)
Codec ID : A_AC3
Duration : 2h 0mn
Bit rate mode : Constant
Bit rate : 640 Kbps
Channel(s) : 6 channels
Channel positions : Front: L C R, Side: L R, LFE
Sampling rate : 48.0 KHz
Bit depth : 16 bits
Compression mode : Lossy
Stream size : 551 MiB (5%)
Title : Авторский, А. Гаврилов
Language : Russian
Default : No
Forced : No
Audio #6
ID : 7
Format : AC-3
Format/Info : Audio Coding 3
Mode extension : CM (complete main)
Codec ID : A_AC3
Duration : 2h 0mn
Bit rate mode : Constant
Bit rate : 640 Kbps
Channel(s) : 6 channels
Channel positions : Front: L C R, Side: L R, LFE
Sampling rate : 48.0 KHz
Bit depth : 16 bits
Compression mode : Lossy
Stream size : 551 MiB (5%)
Title : Авторский, А.Матвеев
Language : Russian
Default : No
Forced : No
Audio #7
ID : 8
Format : AC-3
Format/Info : Audio Coding 3
Mode extension : CM (complete main)
Codec ID : A_AC3
Duration : 2h 0mn
Bit rate mode : Constant
Bit rate : 448 Kbps
Channel(s) : 6 channels
Channel positions : Front: L C R, Side: L R, LFE
Sampling rate : 48.0 KHz
Bit depth : 16 bits
Compression mode : Lossy
Stream size : 386 MiB (3%)
Title : Авторский, А.Карповский
Language : Russian
Default : No
Forced : No
Audio #8
ID : 9
Format : AC-3
Format/Info : Audio Coding 3
Mode extension : CM (complete main)
Codec ID : A_AC3
Duration : 2h 0mn
Bit rate mode : Constant
Bit rate : 640 Kbps
Channel(s) : 6 channels
Channel positions : Front: L C R, Side: L R, LFE
Sampling rate : 48.0 KHz
Bit depth : 16 bits
Compression mode : Lossy
Stream size : 551 MiB (5%)
Language : English
Default : No
Forced : No
Text #1
ID : 10
Format : UTF-8
Codec ID : S_TEXT/UTF8
Codec ID/Info : UTF-8 Plain Text
Title : Forced
Language : Russian
Default : Yes
Forced : No
Text #2
ID : 11
Format : UTF-8
Codec ID : S_TEXT/UTF8
Codec ID/Info : UTF-8 Plain Text
Title : Full
Language : Russian
Default : No
Forced : No
Text #3
ID : 12
Format : UTF-8
Codec ID : S_TEXT/UTF8
Codec ID/Info : UTF-8 Plain Text
Title : Notabenoid
Language : Russian
Default : No
Forced : No
Text #4
ID : 13
Format : UTF-8
Codec ID : S_TEXT/UTF8
Codec ID/Info : UTF-8 Plain Text
Title : Notabenoid_2
Language : Russian
Default : No
Forced : No
Text #5
ID : 14
Format : UTF-8
Codec ID : S_TEXT/UTF8
Codec ID/Info : UTF-8 Plain Text
Title : A.Matveev
Language : Russian
Default : No
Forced : No
Text #6
ID : 15
Format : UTF-8
Codec ID : S_TEXT/UTF8
Codec ID/Info : UTF-8 Plain Text
Title : Full
Language : English
Default : No
Forced : No
Text #7
ID : 16
Format : UTF-8
Codec ID : S_TEXT/UTF8
Codec ID/Info : UTF-8 Plain Text
Title : SDH
Language : English
Default : No
Forced : No
Menu
00:00:00.000 : en:00:00:00.000
00:10:42.475 : en:00:10:42.475
00:19:06.433 : en:00:19:06.433
00:30:12.307 : en:00:30:12.307
00:42:55.614 : en:00:42:55.614
00:49:33.344 : en:00:49:33.344
00:59:55.172 : en:00:59:55.172
01:13:02.542 : en:01:13:02.542
01:22:08.921 : en:01:22:08.921
01:30:02.729 : en:01:30:02.729
01:40:39.867 : en:01:40:39.867
01:49:12.546 : en:01:49:12.546
01:53:06.279 : en:01:53:06.279

x264

x264 [info]: frame I:1340 Avg QP:14.66 size:155034
x264 [info]: frame P:48765 Avg QP:17.15 size: 68677
x264 [info]: frame B:123084 Avg QP:19.11 size: 31105

Скриншоты

[Профиль]  [ЛС] 
Похожие темы
Форум Тема Автор Размер
HD Безумный Макс: Дорога ярости / Mad Max: Fury Road (2015) BDRemux 1080p | D, A Тоха™ 38,61 GB
HD Безумный Макс: Дорога ярости / Mad Max: Fury Road (2015) BDRip 1080p | Лицензия Lost_Mind 7,96 GB
3D/Stereo фильмы Безумный Макс: Дорога ярости в 3Д / Mad Max: Fury Road 3D 3D (Джордж Миллер / George Miller) [2015, боевик, фантастика, приключения, Blu-Ray Disc, (Custom) 1080p] BD3D bot 45,23 GB
Зарубежное кино Заваруха в городе (Безумный город, Жар города) / City Heat ( Ричард Бенджамин) (1984, боевик, комедия, DVDRip-AVC) anatolyi100 1,37 GB
Зарубежное кино Этот безумный, безумный, безумный, безумный мир / It's a mad, mad, mad, mad world (Стэнли Крамер) [1963, США,Casey Productions, боевик, комедия, криминал, приключения, DVDRip] (VO ... Круглофф 2,05 GB
Показать сообщения:    
Ответить на тему

Текущее время: 03-Дек 14:33

Часовой пояс: UTC + 3



Вы не можете начинать темы
Вы не можете отвечать на сообщения
Вы не можете редактировать свои сообщения
Вы не можете удалять свои сообщения
Вы не можете голосовать в опросах
Вы не можете прикреплять файлы к сообщениям
Вы не можете скачивать файлы