Сборник клипов - Metal VideoClips (2015) WEBRip 1080p

Ответить на тему
Статистика раздачи [Обновить пиров]
Скачал: [ 8 ]
 
   
 
 
Автор
Сообщение

anatolyi100 ®

Стаж: 6 лет 2 месяца

Сообщений: 826

Откуда: г.герой Севастополь

Создавать темы 03-Ноя-2015 19:19

[Цитировать] 

Сборник клипов - Metal VideoClips (2015) WEBRip 1080p

Название: Metal VideoClips
Год: 2015
Жанр: Rock, Metal
Продолжительность: 3:10:02
Формат/Кодек: MP4 1080p

Трек-лист

01. Amaranthe - Digital World
02. Amorphis - Death Of A King
03. Annihilator - Suicide Society
04. Blackmore's Night - Will O' The Wisp
05. Children Of Bodom - Morrigan
06. Cradle Of Filth - Right Wing Of The Garden Triptych
07. David Gilmour - Rattle That Lock
08. Disturbed - The Vengeful One
09. Ensiferum - One Man Army
10. Europe - War Of Kings
11. Fear Factory - Dielectric
12. Gloryhammer - Rise Of The Chaos Wizards
13. Halestorm - Amen
14. Helloween - My God-Given Right
15. Iron Maiden - Speed Of Light
16. Jorn Lande & Trond Holter - Walking On Water
17. Kamelot - Liar Liar (Wasteland Monarchy)
18. Kiske/Somerville - City Of Heroes
19. Korpiklaani - Pilli On Pajusta Tehty
20. Lamb Of God - 512
21. Leaves' Eyes - The Waking Eye
22. Lindemann - Praise Abort
23. Marilyn Manson - The Mephistopheles Of Los Angeles
24. Moonspell - Extinct
25. My Dying Bride - Feel The Misery
26. Nightwish - Elan
27. Oomph! - Alles Aus Liebe
28. Paradise Lost - Beneath Broken Earth
29. Saxon - Battering Ram
30. Scorpions - We Built This House
31. Sirenia - Once My Light
32. Slayer - Repentless
33. Slipknot - Killpop
34. Stratovarius - My Eternal Dream
35. The Agonist - My Witness, Your Victim
36. The Gentle Storm - Shores Of India [Storm Version]
37. Therion - Initials BB
38. Trivium - Silence In The Snow
39. U.D.O. - Decadent
40. Whitesnake - Soldier Of Fortune

MI

Общее
Полное имя : G:\MUZ\Metal Clips 2015
Формат : MPEG-4
Профиль формата : Base Media
Идентификатор кодека : isom
Общий поток : 3777 Кбит/сек
Программа кодирования : Lavf55.33.100
Видео
Идентификатор : 1
Формат : AVC
Формат/Информация : Advanced Video Codec
Профиль формата : [email protected]
Параметр CABAC формата : Да
Параметр ReFrames формата : 3 кадра
Идентификатор кодека : avc1
Идентификатор кодека/Информация : Advanced Video Coding
Duration_FirstFrame : -40 мс.
Битрейт : 3647 Кбит/сек
Ширина : 1920 пикселей
Высота : 1080 пикселей
Соотношение сторон : 16:9
Режим частоты кадров : Переменный
Частота кадров : 25,000 кадров/сек
Минимальная частота кадров : 25,000 кадров/сек
Максимальная частота кадров : 25,014 кадров/сек
Цветовое пространство : YUV
Субдискретизация насыщенности : 4:2:0
Битовая глубина : 8 бит
Тип развёртки : Прогрессивная
Бит/(Пиксели*Кадры) : 0.070
Размер потока : 132 Мбайт (97%)
Аудио
Идентификатор : 2
Формат : AAC
Формат/Информация : Advanced Audio Codec
Профиль формата : LC
Идентификатор кодека : 40
Продолжительность : 5 м. 2 с.
Вид битрейта : Постоянный
Битрейт : 126 Кбит/сек
Каналы : 2 канала
Расположение каналов : Front: L R
Частота : 44,1 КГц
Метод сжатия : С потерями
Размер потока : 4,53 Мбайт (3%)
[Профиль]  [ЛС] 
Похожие темы
Форум Тема Автор Размер
Музыка (Ретро, советская эстрада) Сборник - 300 знаменитых хитов ВИА СССР [15CD] (1970-1989) MP3 - 2013, MP3, 320 kbps yura64 2,42 GB
Программное обеспечение SamDrivers 16.10 - Сборник драйверов для Windows True! 12,03 GB
Аудиокниги Брайан Трейси - Сборник аудио книг о личностном развитии и успехе (11 книг) Mandatra 935 MB
Мультфильмы Самый лучший новый год!!! (сборник отечественных мультфильмов) [1946-2010 г., мультфильм, DVDRip] Зоя 13,59 GB
Аудиокниги Сборник "Зов Припяти"(S.T.A.L.K.E.R.) Oldket 178 MB
Arcade / Детские Сборник игр от Alawar & Nevosoft (2003-2009) PC {RUS} rehljukj 17,23 GB
Аудиокниги Сборник рассказов "Без единого выстрела"(S.T.A.L.K.E.R.) [Олег Шубин, 2010] Oldket 107 MB
Аудиокниги Сборник рассказов "Отчужденные..."(S.T.A.L.K.E.R.) [Олег Шубин, 2011] Oldket 218 MB
Показать сообщения:    
Ответить на тему

Текущее время: 06-Дек 03:50

Часовой пояс: UTC + 3



Вы не можете начинать темы
Вы не можете отвечать на сообщения
Вы не можете редактировать свои сообщения
Вы не можете удалять свои сообщения
Вы не можете голосовать в опросах
Вы не можете прикреплять файлы к сообщениям
Вы не можете скачивать файлы