Перелётные птицы [01-04 из 04] (2014) HDTVRip от Шкипер

Ответить на тему
Статистика раздачи [Обновить пиров]
Скачал: [ 1 ]
 
   
 
 
Автор
Сообщение

-=DoC(ToP)=-™ ®

Стаж: 5 лет 1 месяц

Сообщений: 472

Откуда: СЕВАСТОПОЛЬ

Создавать темы 03-Ноя-2015 21:06

[Цитировать] 


Информация о фильме
Название: Перелётные птицы
Год выхода: 2014
Жанр: Драма, криминал
Режиссер: Богдан Дробязко
В ролях: Илья Шакунов, Кристина Бабушкина, Игорь Савочкин, Андрей Межулис, Николай Боклан, Виталий Линецкий, Мерджен Халлыева, Ольга Сторожук
О фильме:
В небольшом поселке на границе с Латвией угрюмый, нелюдимый человек по прозвищу Гудини промышляет доставкой нелегалов в Европу по секретной тропе, минуя пограничников. Ему все равно, кого переправлять: беженцев, преступников или просто мотающихся по свету людей. Никто не знает, кто он такой, откуда, и почему этим занимается. Единственное, что известно о Гудини – он всегда выполняет свою работу со стопроцентной гарантией. Однажды ему приходится сопровождать в другую страну маленькую беспризорную мулатку Машу, которую бандиты хотят продать на органы. Волей судьбы два одиноких человека - большой и маленький – оказываются в эпицентре криминальных событий.

Страна: Украина
Студия: Star Media
Продолжительность: 4 х ~ 00:45:00
Перевод: Не требуется
Файл
Кодек: XviD
Качество: HDTVRip
Видео: 624x352 (1.77:1), 25 fps, XviD build 73 ~928 kbps avg, 0.17 bit/pixel
Видео 2: 624x352 (1.77:1), 25 fps, XviD build 73 ~1052 kbps avg, 0.19 bit/pixel
Видео 3:624x352 (1.77:1), 25 fps, XviD build 73 ~1014 kbps avg, 0.18 bit/pixel
Видео 4: 624x352 (1.77:1), 25 fps, XviD build 73 ~1057 kbps avg, 0.19 bit/pixel
Звук: 48 kHz, MPEG Layer 3, 2 ch, ~128.00 kbps avg
Субтитры: Отсутствует
Семпл

MI

General
Complete name : D:Изготовление риповPereletnye.ptitsy.(1-4.seriya.iz.4).2014.HDTVRip.shkiperPereletnye.ptitsy.(1.seriya.iz.4).2014.HDTVRip.shkiper.avi
Format : AVI
Format/Info : Audio Video Interleave
File size : 328 MiB
Duration : 42mn 56s
Overall bit rate : 1 067 Kbps
Writing application : VirtualDubMod 1.5.10.3 | www.virtualdub-fr.org || (build 2550/release)
Writing library : VirtualDubMod build 2550/release
Video
ID : 0
Format : MPEG-4 Visual
Format profile : Advanced [email protected]
Format settings, BVOP : 1
Format settings, QPel : No
Format settings, GMC : No warppoints
Format settings, Matrix : Custom
Codec ID : XVID
Codec ID/Hint : XviD
Duration : 42mn 56s
Bit rate : 929 Kbps
Width : 624 pixels
Height : 352 pixels
Display aspect ratio : 16:9
Frame rate : 25.000 fps
Color space : YUV
Chroma subsampling : 4:2:0
Bit depth : 8 bits
Scan type : Progressive
Compression mode : Lossy
Bits/(Pixel*Frame) : 0.169
Stream size : 285 MiB (87%)
Writing library : XviD 73
Audio
ID : 1
Format : MPEG Audio
Format version : Version 1
Format profile : Layer 3
Codec ID : 55
Codec ID/Hint : MP3
Duration : 42mn 56s
Bit rate mode : Constant
Bit rate : 128 Kbps
Channel(s) : 2 channels
Sampling rate : 48.0 KHz
Compression mode : Lossy
Stream size : 39.3 MiB (12%)
Alignment : Aligned on interleaves
Interleave, duration : 40 ms (1.00 video frame)
Interleave, preload duration : 504 ms
Writing library : LAME3.99r
Encoding settings : -m s -V 4 -q 2 -lowpass 17 -b 128

Скриншоты

Релиз от:
[Профиль]  [ЛС] 
Показать сообщения:    
Ответить на тему

Текущее время: 08-Дек 17:04

Часовой пояс: UTC + 3



Вы не можете начинать темы
Вы не можете отвечать на сообщения
Вы не можете редактировать свои сообщения
Вы не можете удалять свои сообщения
Вы не можете голосовать в опросах
Вы не можете прикреплять файлы к сообщениям
Вы не можете скачивать файлы