Том и Джерри: Том 1 / Tom and Jerry Golden Collection: Vol. 1 [01-37 из 37] (1940-1948) BDRip-AVC

Ответить на тему
Статистика раздачи [Обновить пиров]
Скачал: [ 4 ]
 
   
 
 
Автор
Сообщение

anatolyi100 ®

Стаж: 6 лет 2 месяца

Сообщений: 826

Откуда: г.герой Севастополь

Создавать темы 05-Ноя-2015 13:30

[Цитировать] 

Том и Джерри: Том 1 / Tom and Jerry Golden Collection: Vol. 1
-Название: Том и Джерри. Золотая коллекция: Том первый
Оригинальное название: Tom & Jerry Golden Collection: Volume One
Год выпуска: 1940-1948
Страна: США
Жанр: мультфильм, мюзикл, семейный
Продолжительность: ~00:09:00
Перевод: Профессиональный (двухголосый)
Субтитры: русские (Полные), английские (Полные)-Режиссер: Джозеф Барбера, Уильям Ханна / Joseph Barbera, William Hanna-В ролях: Ричард Кайнд (Tom, озвучка), Дэна Хилл (Jerry, озвучка), Энди МакЭфи (Robyn Starling, озвучка), Тони Джей (Lickboot, озвучка), Рип Тейлор (Captain Kiddie, озвучка), Генри Гибсон (Doctor Applecheek, озвучка), Майкл Белл (Ferdinand / Straycatcher, озвучка), Эд Гилберт (Puggsy / Daddy Starling, озвучка), Дэвид Л. Лэндер (Frankie da Flea, озвучка), Ховард Моррис (Squawk, озвучка), Сидни Лэссик (Straycatcher, озвучка), Рэймонд МакЛеод (Alleycat / Bulldog, озвучка)-Описание:
Кот Том и мышонок Джерри - парочка, прославившаяся на весь мир. Уже несколько десятков лет Том гоняется за Джерри с неослабевающим азартом. Том придумывает всё новые и новые хитроумные уловки, чтобы поймать Джерри, но мышонок всё время выкручивается с не меньшей изобретательностью.-Рейтинг

imdb.com: 5.20 (6180)
MPAA: G - Нет возрастных ограничений-Качество: BDRip-AVC 60fps
Формат: MKV
Видео кодек: AVC
Аудио кодек:AC3
Видео: AVC, 784x576 (4:3), 4000 kbps, 59,940 fps, 0,148 bpp
Аудио №1: русский / AC3 / 1 / 48 kHz / 192 kbps / 16 bit |Двухголосый, закадровый Omikron|
Аудио №2: английский / AC3 / 1 / 48 kHz / 192 kbps / 16 bit- -

Список серий

001. Puss Gets The Boot / За что наказали кота / (1940)
002. The Midnight Snack / Поздний ужин / (1941)
003. The Night Before Christmas / Ночь перед Рождеством / (1941)
004. Fraidy Cat / Кот-трусишка / (1942)
005. Dog Trouble / Пес - нам не товарищ / (1942)
006. Puss N' Toots / Гости не должны скучать / (1942)
007. The Bowling Alley-Cat / Давай сыграем в кегли / (1942)
008. Fine Feathered Friend / Пернатая заступница / (1942)
009. Sufferin' Cats! / К чему приводит жадность / (1943)
010. The Lonesome Mouse / Когда мышонку стало скучно / (1943)
011. The Yankee Doodle Mouse / Мышонок-стратег / (1943)
012. Baby Puss / Нелегко быть младенцем / (1943)
013. The Zoot Cat / Кот-стиляга / (1944)
014. The Million Dollar Cat / Кот миллионер / (1944)
015. The Bodyguard / Телохранитель / (1944)
016. Puttin' On the Dog / В собачьей шкуре / (1944)
017. Mouse Trouble / Неуловимый мышонок / (1944)
018. The Mouse Comes To Dinner / Романтический ужин / (1945)
019. Mouse In Manhattan / Мышонок в Нью-Йорке / (1945)
020. Tee For Two / Игра в гольф / (1945)
021. Flirty Birdy / Птичке хочется любви / (1945)
022. Quiet Please! / Соблюдайте тишину / (1945)
023. Springtime For Thomas / Пришла весна / (1946)
024. The Milky Wall / Подкидыш / (1946)
025. Trap Happy / Охота на мышей / (1946)
026. Solid Serenade / Шумная серенада / (1946)
027. Cat Fishin' / Том и Джерри на рыбалке / (1947)
028. Part Time Pal / Перемирие / (1947)
029. The Cat Concerto / Концерт для кота с оркестром! / (1947)
030. Dr. Jekyll And Mr. Mouse / Доктор Джекел и мистер Мышь / (1947)
031. Salt Water Tabby / Приключения на пляже / (1947)
032. A Mouse In The House / Если в доме завелись мыши / (1947)
033. The Invisible Mouse / Мышонок-невидимка / (1947)
034. Kitty Foiled / Надо друга выручать / (1948)
035. The Truce Hurts / Мирный договор / (1948)
036. Old Rockin' Chair Tom / Старый, добрый Том / (1948)
037. Professor Tom / Том-учитель / (1948)

MI

General
Unique ID : 201378612130122508302699344599199672995 (0x97801C241D294E4190D8CB4BF25A6AA3)
Format : Matroska
Format version : Version 4 / Version 2
File size : 285 MiB
Duration : 9mn 5s
Overall bit rate : 4 379 Kbps
Movie name : Tiberiumsun69
Encoded date : UTC 2015-07-07 00:04:44
Writing application : mkvmerge v7.9.0 ('Birds') 64bit
Writing library : libebml v1.3.1 + libmatroska v1.4.2
Attachment : Yes
Video
ID : 1
Format : AVC
Format/Info : Advanced Video Codec
Format profile : [email protected]
Format settings, CABAC : Yes
Format settings, ReFrames : 4 frames
Codec ID : V_MPEG4/ISO/AVC
Duration : 9mn 5s
Bit rate : 4 000 Kbps
Width : 784 pixels
Height : 576 pixels
Display aspect ratio : 4:3
Frame rate : 59.940 fps
Color space : YUV
Chroma subsampling : 4:2:0
Bit depth : 8 bits
Scan type : Progressive
Bits/(Pixel*Frame) : 0.148
Stream size : 254 MiB (89%)
Title : TIberiumsun69
Writing library : x264 core 146 r2538 121396c
Encoding settings : cabac=1 / ref=4 / deblock=1:0:0 / analyse=0x3:0x113 / me=umh / subme=9 / psy=1 / psy_rd=1.00:0.10 / mixed_ref=1 / me_range=32 / chroma_me=1 / trellis=2 / 8x8dct=1 / cqm=0 / deadzone=21,11 / fast_pskip=0 / chroma_qp_offset=-3 / threads=12 / lookahead_threads=3 / sliced_threads=0 / nr=0 / decimate=1 / interlaced=0 / bluray_compat=0 / constrained_intra=0 / bframes=16 / b_pyramid=2 / b_adapt=2 / b_bias=0 / direct=3 / weightb=1 / open_gop=0 / weightp=2 / keyint=600 / keyint_min=59 / scenecut=40 / intra_refresh=0 / rc_lookahead=60 / rc=2pass / mbtree=1 / bitrate=4000 / ratetol=1.0 / qcomp=0.60 / qpmin=0 / qpmax=69 / qpstep=4 / cplxblur=20.0 / qblur=0.5 / vbv_maxrate=50000 / vbv_bufsize=62500 / nal_hrd=none / filler=0 / ip_ratio=1.40 / aq=1:1.00
Language : English
Default : Yes
Forced : No
Audio #1
ID : 2
Format : AC-3
Format/Info : Audio Coding 3
Mode extension : CM (complete main)
Codec ID : A_AC3
Duration : 9mn 5s
Bit rate mode : Constant
Bit rate : 192 Kbps
Channel(s) : 1 channel
Channel positions : Front: C
Sampling rate : 48.0 KHz
Bit depth : 16 bits
Compression mode : Lossy
Stream size : 12.5 MiB (4%)
Title : DVO (Омикрон)
Language : Russian
Default : Yes
Forced : No
Audio #2
ID : 3
Format : AC-3
Format/Info : Audio Coding 3
Mode extension : CM (complete main)
Codec ID : A_AC3
Duration : 9mn 5s
Bit rate mode : Constant
Bit rate : 192 Kbps
Channel(s) : 1 channel
Channel positions : Front: C
Sampling rate : 48.0 KHz
Bit depth : 16 bits
Compression mode : Lossy
Stream size : 12.5 MiB (4%)
Title : Оригинал
Language : English
Default : No
Forced : No
Text #1
ID : 4
Format : UTF-8
Codec ID : S_TEXT/UTF8
Codec ID/Info : UTF-8 Plain Text
Title : Полные
Language : Russian
Default : No
Forced : No
Text #2
ID : 5
Format : UTF-8
Codec ID : S_TEXT/UTF8
Codec ID/Info : UTF-8 Plain Text
Title : Полные
Language : English
Default : No
Forced : No

Скриншоты

Просьба к переливающим на другие сайты, в оформлении указывайте пожалуйста авторство группы
[Профиль]  [ЛС] 
Похожие темы
Форум Тема Автор Размер
Мультфильмы Крепость: щитом и мечом (2015) WEB-DLRip | iTunes -=DoC(ToP)=-™ 1,28 GB
Мультфильмы Том и Джерри: Шпион Квест / Tom and Jerry: Spy Quest + 4 бонуса (2015) DVDRip anatolyi100 2,4 GB
Показать сообщения:    
Ответить на тему

Текущее время: 07-Дек 21:17

Часовой пояс: UTC + 3



Вы не можете начинать темы
Вы не можете отвечать на сообщения
Вы не можете редактировать свои сообщения
Вы не можете удалять свои сообщения
Вы не можете голосовать в опросах
Вы не можете прикреплять файлы к сообщениям
Вы не можете скачивать файлы