Я любил вас больше жизни (1985) DVDRip от New-Team

Ответить на тему
Статистика раздачи [Обновить пиров]
Скачал: [ 1 ]
 
   
 
 
Автор
Сообщение

-=DoC(ToP)=-™ ®

Стаж: 5 лет 1 месяц

Сообщений: 472

Откуда: СЕВАСТОПОЛЬ

Создавать темы 07-Ноя-2015 15:18

[Цитировать] 

Страна: СССР
Производство: Азербайджанфильм
Жанр: драма, военный
Год выпуска: 1985
Продолжительность: 01:21:50
Перевод: Не требуется
Cубтитры: нет
Оригинальная аудиодорожка: русский
Режиссер: Расим Исмайлов
В ролях:
Рамиз Новрузов, Виктор Тарасов, Александр Денисов, Шахмар Алекперов, Виктор Ильичёв, Александр Поляков, Бадри Какабадзе, Михаил Петров, Олег Соколдынский, Игорь Неупокоев, Гюльнара Ибрагимова, Рза Худиев, Яшар Джавадов, Рамин Рагимов, Асим Гадирли, Гамлет Манахимов...
Полный список актёров
Описание:
Фильм рассказывает о жизни и боевом пути дважды Героя Советского Союза генерал-майора Ази Асланова, геройски погибшего в боях под Елгавой за три месяца до Победы. Своим внимательным отношением к подчиненным, отцовской заботой, а также личной смелостью он завоевал любовь солдат и офицеров. Человек несгибаемого мужества, умевший в бою презирать опасность и быть беспощадным к врагу.- -Источник: DVD5 R5
Качество видео: DVDRip
Формат видео: AVI
Видео: 688x320 (2,2:1), 25 fps, XviD ~ 1072 kbps avg, 0.195 bit/pixel
Аудио: 48 kHz, Dolby Digital AC3 2.0, 192 kbps
Раздача от:

MediaInfo

Общее
Полное имя : Ya.lyubil.vas.bolshe.zhizni.1985.SATRip_[New-team]_by_AVP_Studio.avi
Формат : AVI
Формат/Информация : Audio Video Interleave
Размер файла : 746 Мбайт
Продолжительность : 1 ч. 21 м.
Общий поток : 1274 Кбит/сек
Программа кодирования : VirtualDubMod 1.5.10.3 | www.virtualdub-fr.org || (build 2550/release)
Библиотека кодирования : VirtualDubMod build 2550/release
Видео
Идентификатор : 0
Формат : MPEG-4 Visual
Профиль формата : Advanced [email protected]
Параметр BVOP формата : 1
Параметр QPel формата : Нет
Параметр GMC формата : Без точки перехода
Параметр матрицы формата : Выборочная
Идентификатор кодека : XVID
Идентификатор кодека/Подсказка : XviD
Продолжительность : 1 ч. 21 м.
Битрейт : 1072 Кбит/сек
Ширина : 688 пикселей
Высота : 320 пикселей
Соотношение сторон : 2,2:1
Частота кадров : 25,000 кадров/сек
Цветовое пространство : YUV
Субдискретизация насыщенности : 4:2:0
Битовая глубина : 8 бит
Тип развёртки : Прогрессивная
Метод сжатия : С потерями
Бит/(Пиксели*Кадры) : 0.195
Размер потока : 628 Мбайт (84%)
Библиотека кодирования : XviD 73
Аудио
Идентификатор : 1
Формат : AC-3
Формат/Информация : Audio Coding 3
Расширение режима : CM (complete main)
Параметр Endianness формата : Big
Идентификатор кодека : 2000
Продолжительность : 1 ч. 21 м.
Вид битрейта : Постоянный
Битрейт : 192 Кбит/сек
Каналы : 2 канала
Расположение каналов : Front: L R
Частота : 48,0 КГц
Метод сжатия : С потерями
Размер потока : 112 Мбайт (15%)
Выравнивание : Разделение по промежуткам
Продолжительность промежутка : 40 мс. (1,00 видеокадр)
Время предзагрузки промежутка : 500 мс

Скриншоты

[Профиль]  [ЛС] 
Показать сообщения:    
Ответить на тему

Текущее время: 10-Дек 23:24

Часовой пояс: UTC + 3



Вы не можете начинать темы
Вы не можете отвечать на сообщения
Вы не можете редактировать свои сообщения
Вы не можете удалять свои сообщения
Вы не можете голосовать в опросах
Вы не можете прикреплять файлы к сообщениям
Вы не можете скачивать файлы