Барбоскины [S01-08] (2011-2014) DVDRip-AVC от New-Team

Ответить на тему
Статистика раздачи [Обновить пиров]
Качаю: [ 3 ]
Скачал: [ 5 ]
 
   
 
 
Автор
Сообщение

-=DoC(ToP)=-™ ®

Стаж: 5 лет 1 месяц

Сообщений: 472

Откуда: СЕВАСТОПОЛЬ

Создавать темы 07-Ноя-2015 15:24

[Цитировать] 

Страна: Россия
Год выпуска: 2011-2014
Жанр: мультфильм, детский
Продолжительность: 118 серий ~ 5 минут
Оригинальная аудиодорожка: Русский
Субтитры: нет
Режиссер: Екатерина Салабай, Галина Воропай, Елена Галдобина...
Описание: Мама, папа и… пятеро щенят. У Барбоскиных все, как у людей. Папа свободное время проводит за компьютером, дочери увлекаются модой и слушают Жанну Киску, а сыновья играют в футбол и мечтают о Нобелевской премии...- -Исходник: 8хDVD5 R5
Тип релиза: DVDRip-AVC
Контейнер: MKV
Видео: [email protected], (4:3), 25 fps, H264 ~ 2318 kbps avg, 0.224 bit/pixel
Аудио: 48 kHz, АС3, 2 ch, 192.00 kbps
Раздача от:

Внимание! Раздача ведётся путём добавления новых серий

При каждом добавлении создаётся новый торрент. Чтобы начать докачку новой серии, пользователям необходимо сделать следующее:
1) остановить скачивание,
2) удалить старый торрент у себя из клиента (старые серии удалять не надо),
3) скачать новый торрент и запустить его у себя в клиенте вместо старого, при этом указать клиенту путь в старую папку куда и должно происходить скачивание новых серий.
Ваш клиент при этом должен произвести хеширование (проверку) старой папки (если не производит сам - помогите ему сделать это), и будет докачивать только те серии которых у вас ещё нет. Старые серии при этом не удаляются, а продолжают раздаваться!
Eсли вы уже удалили старые серии, то предотвратить повторную закачку старых серий можно, отжав галочку в соответствующих местах при запуске нового торрента.

MediaInfo

Общее
Полное имя : Barboskiny.2011.DVDRip-AVC_[YouTracker]_by_AVP_StudioВыпуск 1�2.mkv
Формат : Matroska
Версия формата : Version 2
Размер файла : 98,4 Мбайт
Продолжительность : 5 м. 28 с.
Общий поток : 2511 Кбит/сек
Дата кодирования : UTC 2012-02-05 10:21:48
Программа кодирования : mkvmerge v5.0.1 ('Es ist Sommer') built on Nov 6 2011 16:23:40
Библиотека кодирования : libebml v1.2.2 + libmatroska v1.3.0
Видео
Идентификатор : 1
Формат : AVC
Формат/Информация : Advanced Video Codec
Профиль формата : [email protected]
Параметр CABAC формата : Да
Параметр ReFrames формата : 6 кадров
Идентификатор кодека : V_MPEG4/ISO/AVC
Продолжительность : 5 м. 28 с.
Битрейт : 2315 Кбит/сек
Ширина : 720 пикселей
Высота : 576 пикселей
Соотношение сторон : 1,300
Соотношение сторон в оригинале : 4:3
Частота кадров : 25,000 кадров/сек
Стандарт вещания : PAL
Цветовое пространство : YUV
Субдискретизация насыщенности : 4:2:0
Битовая глубина : 8 бит
Тип развёртки : Прогрессивная
Бит/(Пиксели*Кадры) : 0.223
Размер потока : 88,9 Мбайт (90%)
Библиотека кодирования : x264 core 119 r2106 07efeb4
Настройки программы : cabac=1 / ref=6 / deblock=1:-2:-1 / analyse=0x3:0x113 / me=umh / subme=6 / psy=1 / psy_rd=1.00:0.10 / mixed_ref=1 / me_range=32 / chroma_me=1 / trellis=1 / 8x8dct=1 / cqm=0 / deadzone=21,11 / fast_pskip=1 / chroma_qp_offset=-3 / threads=3 / sliced_threads=0 / nr=0 / decimate=1 / interlaced=0 / bluray_compat=0 / constrained_intra=0 / bframes=6 / b_pyramid=2 / b_adapt=1 / b_bias=0 / direct=3 / weightb=1 / open_gop=0 / weightp=0 / keyint=250 / keyint_min=25 / scenecut=40 / intra_refresh=0 / rc_lookahead=60 / rc=2pass / mbtree=1 / bitrate=2315 / ratetol=1.0 / qcomp=0.60 / qpmin=0 / qpmax=69 / qpstep=4 / cplxblur=20.0 / qblur=0.5 / ip_ratio=1.40 / aq=1:1.00
Default : Да
Forced : Нет
Аудио
Идентификатор : 2
Формат : AC-3
Формат/Информация : Audio Coding 3
Расширение режима : CM (complete main)
Идентификатор кодека : A_AC3
Продолжительность : 5 м. 28 с.
Вид битрейта : Постоянный
Битрейт : 192 Кбит/сек
Каналы : 2 канала
Расположение каналов : Front: L R
Частота : 48,0 КГц
Битовая глубина : 16 бит
Метод сжатия : С потерями
Размер потока : 7,53 Мбайт (8%)
Default : Да
Forced : Нет

Список серий

Выпуск 1
01. Пчёлка
02. Опять двойка
03. Межгалактическое сообщество
04. Матч
05. Тест на прочность
06. Перевоспитатели
07. Развитие таланта
08. Спокойной ночи
09. Нобелевская премия
10. Миротворец
11. Первое место
12. Незаменимый Дружок
13. Гончий пес
14. Кто красивее
15. Во всём виноват зайка
Выпуск 2
01. Шнурок
02. Право голоса
03. Лучший подарок
04. Ку-ка-ре-ку
05. Пульт
06. Игры разума
07. Держи себя в руках
08. Побочный эффект
09. Самый лучший
10. Конфетка Правды
11. Колыбельная для дружка
12. Рыжая
13. Шкатулка с секретом
14. Совсем как Жанна Киска
15. Ночь независимости
Выпуск 3:
01. Триумф силы воли
02. Заместитель джина
03. Вечные ценности
04. Сладкий закон
05. Шито-крыто
06. Суперпапа
07. Атака клонов
08. Фото на память
09. Звезда
10. Настоящий парень
11. Все за карточку
12. Квартирный вопрос
13. Театр
14. Улыбка фортуны
15. По-взрослому
Выпуск 4:
01. Принц
02. Пропеллер
03. Сама невинность
04. Опыт общения
05. Безотказный
06. Розыгрыш
07. Ни капельки не страшно
08. Мнение окружающих
09. Срочный ремонт
10. Вознаграждение
11. Двойной Дружок
12. Военная тайна
13. Зеленый гоблин
14. Сальмаганди
15. Как стать Львом Яшей
Выпуск 5:
01. Контакт
02. Ремонт
03. Черная суббота
04. Тайное общество волшебников
05. Потомки скажут спасибо
06. Игровая приставка
07. На благо науки
08. Дача
09. Ученик чародея
10. По закону
11. Чемпион
12. Крокодильи слёзы
13. Второй шанс
14. Поединок
15. Верное средство
Выпуск 6:
01. Рекорд пекинеса
02. Игромания
03. Дедушка хочет на море
04. Туфли
05. Фейерверк
06. Большой
07. Скрепколет
08. Практическая магия
09. Прогулка
10. Важное событие
11. Домовой
12. Укрощение строптивой
13. Ночной сеанс
14. Дворовая история
15. Герой в блестящих доспехах
Выпуск 7: Тайный поклонник
01. Одиночка
02. Пицца
03. Шпинат, шоколад и условный рефлекс
04. Физическая подготовка
05. Морской бой
06. Дуэт сестер Барбоскиных
07. Тайный поклонник
08. Раз шпаргалка, два шпаргалка...
09. Неоценимая услуга
10. Клад
11. Любимый брат
12. Бал
13. В эфире новости
Выпуск 8: Самый лучший дед
01. Конкурс приколов
02. Фальшивый вирус
03. Пчелоптицепес
04. Глобальное потепление
05. Космический шлем
06. Бум шака така
07. Симулянт
08. Элементарная физика
09. Необычная ночь
10. Спорное искусство
11. Творческий поиск
12. Небольшая хитрость
13. Кулинарный шпионаж
14. Самый лучший дед
15. Саблезубая мышь

Скриншоты

[Профиль]  [ЛС] 
Показать сообщения:    
Ответить на тему

Текущее время: 04-Дек 00:46

Часовой пояс: UTC + 3



Вы не можете начинать темы
Вы не можете отвечать на сообщения
Вы не можете редактировать свои сообщения
Вы не можете удалять свои сообщения
Вы не можете голосовать в опросах
Вы не можете прикреплять файлы к сообщениям
Вы не можете скачивать файлы