Чёрный лебедь / Black Swan (2010) BDRip-AVC by msltel

Ответить на тему
Статистика раздачи [Обновить пиров]
Скачал: [ 4 ]
 
   
 
 
Автор
Сообщение

-=DoC(ToP)=-™ ®

Стаж: 5 лет 1 месяц

Сообщений: 472

Откуда: СЕВАСТОПОЛЬ

Создавать темы 07-Ноя-2015 15:32

[Цитировать] 


Название: Чёрный лебедь
Оригинальное название: Black Swan
Год выпуска: 2010
Страна: США
Жанр: Триллер, драма
Продолжительность: 01:48:07
Перевод: Дублированный, авторский, любительский одноголосый
Режиссёр: Даррен Аронофски
В ролях: Натали Портман, Мила Кунис, Венсан Кассель, Барбара Хёрши, Вайнона Райдер, Бенжамен Мильпье, Ксения Соло, Кристина Анапау, Джанет Монтгомери, Себастьян Стэн, Тоби Хемингуэй, Серджо Торрадо, Марк Марголис, Тина Слоун, Абрахам Аронофски, Шарлотта Аронофски, Марша Джин Кёрц, Шон О’Хаган, Кристофер Гартин, Дебора Оффнер, Стэнли Херман, Мишель Родригес, Курт Фроман, Марти Крживонос, Лесли Лайлс, Джон Эпперсон
Описание: Сюжет картины строится вокруг примы балетного театра, у которой неожиданно появляется опасная конкурентка, способная отобрать у главной героини все партии. Соперничество усиливается по мере приближения ответственного выступления, которое должно решить всё...

Качество: BDRip AVC Сравнение с исходником
Формат: MKV
Видео: MPEG-4 AVC, 2191 Kбит/с, 1024x426, 23,976 кадра/с
Аудио 1: русский, AC3, 448 kbps, 6 ch, 48 kHz [дублированный]
Аудио 2: русский, AC3, 448 kbps, 6 ch, 48 kHz [авторский, Юрий Сербин]
Аудио 3: русский, AC3, 448 kbps, 6 ch, 48 kHz [любительский одноголосый, VadimNaz]
Аудио 4: английский, AC3, 448 kbps, 6 ch, 48 kHz [оригинал]
Субтитры 1: русские
Субтитры 2: английские

Инфо-файл

Общее
Уникальный идентификатор : 171813801349846233193026531460337919831 (0x8142226DCBFE0535A56CFD7864D46757)
Полное имя : D:VideoЧёрный лебедь.2010.BDRip.AVC.mkv
Формат : Matroska
Версия формата : Version 4 / Version 2
Размер файла : 3,07 Гбайт
Продолжительность : 1 ч. 48 м.
Общий поток : 4064 Кбит/сек
Название фильма : BDRip -- STarankov
Дата кодирования : UTC 2015-11-05 03:21:39
Программа кодирования : mkvmerge v8.2.0 ('World of Adventure') 64bit
Библиотека кодирования : libebml v1.3.1 + libmatroska v1.4.2
DURATION : 01:47:17.930000000
NUMBER_OF_FRAMES : 1242
NUMBER_OF_BYTES : 29831
_STATISTICS_WRITING_APP : mkvmerge v8.2.0 ('World of Adventure') 64bit
_STATISTICS_WRITING_DATE_UTC : 2015-11-05 03:21:39
_STATISTICS_TAGS : BPS DURATION NUMBER_OF_FRAMES NUMBER_OF_BYTES
Видео
Идентификатор : 1
Формат : AVC
Формат/Информация : Advanced Video Codec
Профиль формата : [email protected]
Параметр CABAC формата : Да
Параметр ReFrames формата : 9 кадров
Идентификатор кодека : V_MPEG4/ISO/AVC
Продолжительность : 1 ч. 48 м.
Битрейт : 2191 Кбит/сек
Ширина : 1024 пикселя
Высота : 426 пикселей
Соотношение сторон : 2,40:1
Режим частоты кадров : Постоянный
Частота кадров : 23,976 кадра/сек
Цветовое пространство : YUV
Субдискретизация насыщенности : 4:2:0
Битовая глубина : 8 бит
Тип развёртки : Прогрессивная
Бит/(Пиксели*Кадры) : 0.210
Размер потока : 1,65 Гбайт (54%)
Библиотека кодирования : x264 core 146 r2538 121396c
Настройки программы : cabac=1 / ref=9 / deblock=1:-1:-1 / analyse=0x3:0x113 / me=umh / subme=10 / psy=1 / psy_rd=1.00:0.15 / mixed_ref=1 / me_range=32 / chroma_me=1 / trellis=2 / 8x8dct=1 / cqm=0 / deadzone=21,11 / fast_pskip=1 / chroma_qp_offset=-3 / threads=6 / lookahead_threads=1 / sliced_threads=0 / nr=0 / decimate=1 / interlaced=0 / bluray_compat=0 / constrained_intra=0 / bframes=16 / b_pyramid=2 / b_adapt=2 / b_bias=0 / direct=1 / weightb=1 / open_gop=0 / weightp=2 / keyint=230 / keyint_min=23 / scenecut=40 / intra_refresh=0 / rc_lookahead=40 / rc=crf / mbtree=0 / crf=22.0 / qcomp=0.60 / qpmin=0 / qpmax=69 / qpstep=4 / vbv_maxrate=40000 / vbv_bufsize=50000 / crf_max=0.0 / nal_hrd=none / filler=0 / ip_ratio=1.40 / pb_ratio=1.30 / aq=1:1.00
Язык : English
Default : Да
Forced : Нет
DURATION : 01:48:07.481000000
NUMBER_OF_FRAMES : 155544
NUMBER_OF_BYTES : 1840325967
_STATISTICS_WRITING_APP : mkvmerge v8.2.0 ('World of Adventure') 64bit
_STATISTICS_WRITING_DATE_UTC : 2015-11-05 03:21:39
_STATISTICS_TAGS : BPS DURATION NUMBER_OF_FRAMES NUMBER_OF_BYTES
Аудио #1
Идентификатор : 2
Формат : AC-3
Формат/Информация : Audio Coding 3
Расширение режима : CM (complete main)
Параметр Endianness формата : Big
Идентификатор кодека : A_AC3
Продолжительность : 1 ч. 48 м.
Вид битрейта : Постоянный
Битрейт : 448 Кбит/сек
Каналы : 6 каналов
Расположение каналов : Front: L C R, Side: L R, LFE
Частота : 48,0 КГц
Метод сжатия : С потерями
Размер потока : 346 Мбайт (11%)
Заголовок : DUB
Язык : Russian
Default : Да
Forced : Нет
Аудио #2
Идентификатор : 3
Формат : AC-3
Формат/Информация : Audio Coding 3
Расширение режима : CM (complete main)
Параметр Endianness формата : Big
Идентификатор кодека : A_AC3
Продолжительность : 1 ч. 48 м.
Вид битрейта : Постоянный
Битрейт : 448 Кбит/сек
Каналы : 6 каналов
Расположение каналов : Front: L C R, Side: L R, LFE
Частота : 48,0 КГц
Метод сжатия : С потерями
Размер потока : 346 Мбайт (11%)
Заголовок : AVO (Юрий Сербин)
Язык : Russian
Default : Нет
Forced : Нет
Аудио #3
Идентификатор : 4
Формат : AC-3
Формат/Информация : Audio Coding 3
Расширение режима : CM (complete main)
Параметр Endianness формата : Big
Идентификатор кодека : A_AC3
Продолжительность : 1 ч. 48 м.
Вид битрейта : Постоянный
Битрейт : 448 Кбит/сек
Каналы : 6 каналов
Расположение каналов : Front: L C R, Side: L R, LFE
Частота : 48,0 КГц
Метод сжатия : С потерями
Размер потока : 346 Мбайт (11%)
Заголовок : любительский одноголосый, VadimNaz
Язык : Russian
Default : Нет
Forced : Нет
Аудио #4
Идентификатор : 5
Формат : AC-3
Формат/Информация : Audio Coding 3
Расширение режима : CM (complete main)
Параметр Endianness формата : Big
Идентификатор кодека : A_AC3
Продолжительность : 1 ч. 48 м.
Вид битрейта : Постоянный
Битрейт : 448 Кбит/сек
Каналы : 6 каналов
Расположение каналов : Front: L C R, Side: L R, LFE
Частота : 48,0 КГц
Метод сжатия : С потерями
Размер потока : 346 Мбайт (11%)
Заголовок : Original
Язык : English
Default : Нет
Forced : Нет
Текст #1
Идентификатор : 6
Формат : UTF-8
Идентификатор кодека : S_TEXT/UTF8
Идентификатор кодека/Информация : UTF-8 Plain Text
Заголовок : русский
Язык : Russian
Default : Нет
Forced : Нет
Текст #2
Идентификатор : 7
Формат : UTF-8
Идентификатор кодека : S_TEXT/UTF8
Идентификатор кодека/Информация : UTF-8 Plain Text
Заголовок : английский
Default : Нет
Forced : Нет

Скриншоты

[Профиль]  [ЛС] 
Похожие темы
Форум Тема Автор Размер
FPS (1st Person) S.T.A.L.K.E.R.: Зов Припяти - Чёрный сталкер (2010) {P} [RUS] Clieft 2,69 GB
Аудиокниги Акунин Борис - "Чёрный город" [Сергей Чонишвили, 2012] Oldket 647 MB
Сериалы Волчица и Черный Принц / Ookami Shoujo to Kuro Ouji [TV] [01-12 из 12] [комедия, романтика, школа, сёдзё] [HDTVRip] [JAP+RUS(int) Любительский+SUB] MANGA 3,55 GB
Отечественные сериалы Дело чести [Серии:1-8 из 8] (Андрей Черных) [2007 г., боевик, драма, DVDRip] anatolyi100 4,27 GB
Аудиокниги Конторович Александр - "Черные бушлаты. Диверсант из будущего" [Сергей Ларионов (babay7), 2010] Oldket 892 MB
Аудиокниги Конторович Александр - "Черные тропы" [Сергей Ларионов, 2013] Oldket 678 MB
Аудиокниги Конторович Александр - "Чёрный снег 2. Ответный выстрел" [Сергей Ларионов (babay7), 2011] Oldket 694 MB
Аудиокниги Конторович Александр - "Черный снег." Книга 1 [Сергей Ларионов, 2011] Oldket 617 MB
Показать сообщения:    
Ответить на тему

Текущее время: 11-Дек 16:44

Часовой пояс: UTC + 3



Вы не можете начинать темы
Вы не можете отвечать на сообщения
Вы не можете редактировать свои сообщения
Вы не можете удалять свои сообщения
Вы не можете голосовать в опросах
Вы не можете прикреплять файлы к сообщениям
Вы не можете скачивать файлы