Статский советник (2005) SATRip-AVC от ExKinoRay | Полная ТВ версия

Ответить на тему
Статистика раздачи [Обновить пиров]
Буду качать: [ 1 ]
Скачал: [ 2 ]
 
   
 
 
Автор
Сообщение

-=DoC(ToP)=-™ ®

Стаж: 5 лет 1 месяц

Сообщений: 472

Откуда: СЕВАСТОПОЛЬ

Создавать темы 07-Ноя-2015 15:47

[Цитировать] 


Информация о фильме
Название: Статский советник
Год выхода: 2005
Жанр: Драма, детектив
Режиссер: Филипп Янковский
В ролях: Олег Меньшиков, Никита Михалков, Константин Хабенский, Владимир Машков, Олег Табаков, Оксана Фандера, Мария Миронова, Михаил Ефремов, Фёдор Бондарчук, Эмилия Спивак, Алексей Горбунов, Ростислав Янковский, Игорь Ясулович, Масами Агава, Дмитрий Мухамадеев, Кирилл Грацинский, Юрий Колокольников, Павел Белозёров, Владимир Зайцев, Владимир Краснов, Александр Стриженов, Павел Ващилин, Екатерина Вуличенко
О фильме: Российская империя, конец XIX века. В министерском вагоне курьерского поезда неизвестным убит бывший командир Отдельного корпуса жандармов, сибирский генерал-губернатор Храпов, направлявшийся через Москву к месту службы. Из донесения охраны следует, что Храпов был убит статским советником Эрастом Петровичем Фандориным, в чьи обязанности входило обеспечение безопасности генерал-губернатора во время его нахождения в Москве. «Статский советник» проследовал в купе Храпова. Через несколько минут генерал был найден убитым, преступник бежал через окно. На месте преступления убийцей был оставлен кинжал с загадочной аббревиатурой «БГ». Однако, по прибытии в Москву, сопровождение Храпова встречается с настоящим Фандориным и убеждается в том, что убийца лишь выдавал себя за статского советника...
Страна: Россия
Продолжительность: 4 x ~ 00:50:00
Перевод: не требуется
Файл
Кодек: x264
Качество: SATRip-AVC
Видео: MPEG-4 AVC, 2112 Кбит/с, [email protected]
Звук: AC3, 2 ch, 192 Кбит/с

Медиа-Инфо

Общее
Уникальный идентификатор : 185592584811475491795317552646813187830 (0x8B9FD4E74E98099EB4D38CCCAA34FEF6)
Полное имя : D:Советник-1.mkv
Формат : Matroska
Версия формата : Version 2
Размер файла : 749 Мбайт
Продолжительность : 45 м.
Общий поток : 2306 Кбит/сек
Дата кодирования : UTC 2015-11-06 07:59:48
Программа кодирования : mkvmerge v7.8.0 ('River Man') 32bit built on Apr 3 2015 12:11:22
Библиотека кодирования : libebml v1.3.1 + libmatroska v1.4.2
Видео
Идентификатор : 1
Формат : AVC
Формат/Информация : Advanced Video Codec
Профиль формата : [email protected]
Параметр CABAC формата : Да
Параметр ReFrames формата : 15 кадров
Идентификатор кодека : V_MPEG4/ISO/AVC
Продолжительность : 45 м.
Битрейт : 2112 Кбит/сек
Ширина : 694 пикселя
Высота : 456 пикселей
Соотношение сторон : 1,623
Режим частоты кадров : Постоянный
Частота кадров : 25,000 кадров/сек
Цветовое пространство : YUV
Субдискретизация насыщенности : 4:2:0
Битовая глубина : 8 бит
Тип развёртки : Прогрессивная
Бит/(Пиксели*Кадры) : 0.267
Размер потока : 671 Мбайт (90%)
Библиотека кодирования : x264 core 148 r2579 73ae2d1
Настройки программы : cabac=1 / ref=15 / deblock=1:-2:-2 / analyse=0x3:0x133 / me=umh / subme=10 / psy=1 / psy_rd=1.05:0.13 / mixed_ref=1 / me_range=32 / chroma_me=1 / trellis=2 / 8x8dct=1 / cqm=0 / deadzone=21,11 / fast_pskip=0 / chroma_qp_offset=-3 / threads=12 / lookahead_threads=3 / sliced_threads=0 / nr=0 / decimate=0 / interlaced=0 / bluray_compat=0 / constrained_intra=0 / bframes=10 / b_pyramid=2 / b_adapt=2 / b_bias=0 / direct=3 / weightb=1 / open_gop=0 / weightp=2 / keyint=250 / keyint_min=25 / scenecut=40 / intra_refresh=0 / rc=2pass / mbtree=0 / bitrate=2112 / ratetol=1.0 / qcomp=0.70 / qpmin=0 / qpmax=39 / qpstep=4 / cplxblur=20.0 / qblur=0.5 / ip_ratio=1.40 / pb_ratio=1.30 / aq=1:1.00
Default : Да
Forced : Нет
Основные цвета : BT.601 PAL
Характеристики трансфера : BT.470 System B, BT.470 System G
Коэффициенты матрицы : BT.601
Аудио
Идентификатор : 2
Формат : AC-3
Формат/Информация : Audio Coding 3
Расширение режима : CM (complete main)
Параметр Endianness формата : Big
Идентификатор кодека : A_AC3
Продолжительность : 45 м.
Вид битрейта : Постоянный
Битрейт : 192 Кбит/сек
Каналы : 2 канала
Расположение каналов : Front: L R
Частота : 48,0 КГц
Битовая глубина : 16 бит
Метод сжатия : С потерями
Размер потока : 62,3 Мбайт (8%)
Default : Да
Forced : Нет
Релиз от:
Автор релиза:
[Профиль]  [ЛС] 
Похожие темы
Форум Тема Автор Размер
Отечественные сериалы Мажор (Серии: 1-12 из 12) (Константин Статский) [2014, Криминальная драма SATRip] Serega624 8,58 GB
Показать сообщения:    
Ответить на тему

Текущее время: 10-Дек 15:38

Часовой пояс: UTC + 3



Вы не можете начинать темы
Вы не можете отвечать на сообщения
Вы не можете редактировать свои сообщения
Вы не можете удалять свои сообщения
Вы не можете голосовать в опросах
Вы не можете прикреплять файлы к сообщениям
Вы не можете скачивать файлы