Сумерки: Антология / Twilight: Anthology (2008-2012) BDRip 720p от NNNB

Ответить на тему
Статистика раздачи [Обновить пиров]
Скачал: [ 1 ]
 
   
 
 
Автор
Сообщение

-=DoC(ToP)=-™ ®

Стаж: 5 лет 1 месяц

Сообщений: 472

Откуда: СЕВАСТОПОЛЬ

Создавать темы 13-Ноя-2015 20:14

[Цитировать] 

-
Сумерки: Антология / Twilight: Anthology (2008-2012) BDRip 720p
-Название: Сумерки: Антология
Оригинальное название: Twilight: Anthology
Год выхода: 2008 | 2009 | 2010 | 2011 | 2012
Жанр: Триллер, драма, мелодрама
Режиссер: Катрин Хардвик, Крис Вайц, Дэвид Слэйд, Билл Кондон
Продолжительность: 02:01:50 | 02:10:38 | 02:03:57 | 01:57:08 | 01:55:12
Автор Рипа: Сообщество:
-

<center><img src=http://images.sevstar.net/images/22210150920105625744.png></center>

- Информация о фильме
Русское название: Сумерки
Оригинальное название: Twilight
Год выхода: 2008
Жанр: Триллер, фэнтези
Режиссер: Катрин Хардвик
Выпущено: США
Продолжительность: 02:01:50
Перевод: Дублированный
В ролях: Кристен Стюарт, Роберт Паттинсон, Билли Бурк, Эшли Грин, Никки Рид, Джексон Рэтбоун, Келлан Латс, Питер Фасинелли, Кэм Жиганде, Тэйлор Лотнер-Сюжет фильма
Семнадцатилетняя девушка Бэлла переезжает к отцу в небольшой городок Форкс. Она влюбляется в загадочного одноклассника, который, как оказалось, происходит из семьи вампиров, отказавшихся от нападений на людей. Влюбиться в вампира. Это страшно? Это романтично, это прекрасно и мучительно, но это не может кончиться добром, особенно в вечном противостоянии вампирских кланов, где малейшее отличие от окружающих уже превращает вас в врага...-Файл
Качество: BDRip 720p (исходник Blu-ray Disc)
Видео: 1280x534, 4054 Кбит/сек, 23,976 кадр/сек, AVC, x264, [email protected], 2.40:1, 0.247 Бит/[Пиксели*Кадры], 2pass
Аудио 1: AC-3, 448 Кбит/сек, 6 канала(ов), 48,0 КГц - Дублированный / Русский
Аудио 2: AC-3, 640 Кбит/сек, 6 канала(ов), 48,0 КГц - Оригинал / Английский
Субтитры: Русские | Полные, Английские | Полные
Чаптеры: Есть- -

Скриншоты & MediaInfo

MediaInfo

Format : Matroska
Format version : Version 2
File size : 4.38 GiB
Duration : 2h 1mn
Overall bit rate : 5 145 Kbps
Movie name : Сумерки.(2008).BDRip.720p.[envy]
Encoded date : UTC 2013-10-14 01:05:25
Writing application : mkvmerge v5.8.0 ('No Sleep / Pillow') built on Sep 2 2012 15:37:04
Writing library : libebml v1.2.3 + libmatroska v1.3.0
Video
ID : 1
Format : AVC
Format/Info : Advanced Video Codec
Format profile : [email protected]
Format settings, CABAC : Yes
Format settings, ReFrames : 11 frames
Codec ID : V_MPEG4/ISO/AVC
Duration : 2h 1mn
Bit rate : 4 054 Kbps
Width : 1 280 pixels
Height : 534 pixels
Display aspect ratio : 2.40:1
Frame rate mode : Constant
Frame rate : 23.976 fps
Color space : YUV
Chroma subsampling : 4:2:0
Bit depth : 8 bits
Scan type : Progressive
Bits/(Pixel*Frame) : 0.247
Stream size : 3.37 GiB (77%)
Title : Сумерки.(2008).BDRip.720p.[envy]
Writing library : x264 core 138 r2358 9e941d1
Encoding settings : cabac=1 / ref=11 / deblock=1:-3:-3 / analyse=0x3:0x133 / me=umh / subme=11 / psy=1 / psy_rd=1.00:0.00 / mixed_ref=1 / me_range=32 / chroma_me=1 / trellis=2 / 8x8dct=1 / cqm=0 / deadzone=21,11 / fast_pskip=0 / chroma_qp_offset=-2 / threads=12 / lookahead_threads=1 / sliced_threads=0 / nr=0 / decimate=1 / interlaced=0 / bluray_compat=0 / constrained_intra=0 / bframes=6 / b_pyramid=2 / b_adapt=2 / b_bias=0 / direct=3 / weightb=1 / open_gop=0 / weightp=2 / keyint=240 / keyint_min=23 / scenecut=40 / intra_refresh=0 / rc=2pass / mbtree=0 / bitrate=4054 / ratetol=2.0 / qcomp=0.60 / qpmin=0 / qpmax=69 / qpstep=4 / cplxblur=20.0 / qblur=0.5 / ip_ratio=1.40 / pb_ratio=1.30 / aq=1:0.70
Language : English
Default : Yes
Forced : No
Audio #1
ID : 2
Format : AC-3
Format/Info : Audio Coding 3
Mode extension : CM (complete main)
Format settings, Endianness : Big
Codec ID : A_AC3
Duration : 2h 1mn
Bit rate mode : Constant
Bit rate : 448 Kbps
Channel count : 6 channels
Channel positions : Front: L C R, Side: L R, LFE
Sampling rate : 48.0 KHz
Bit depth : 16 bits
Compression mode : Lossy
Stream size : 390 MiB (9%)
Title : Дубляж
Language : Russian
Default : Yes
Forced : No
Audio #2
ID : 3
Format : AC-3
Format/Info : Audio Coding 3
Mode extension : CM (complete main)
Format settings, Endianness : Big
Codec ID : A_AC3
Duration : 2h 1mn
Bit rate mode : Constant
Bit rate : 640 Kbps
Channel count : 6 channels
Channel positions : Front: L C R, Side: L R, LFE
Sampling rate : 48.0 KHz
Bit depth : 16 bits
Compression mode : Lossy
Stream size : 558 MiB (12%)
Title : Оригинал
Language : English
Default : No
Forced : No
Text #1
ID : 4
Format : UTF-8
Codec ID : S_TEXT/UTF8
Codec ID/Info : UTF-8 Plain Text
Title : Полные
Language : Russian
Default : No
Forced : No
Text #2
ID : 5
Format : UTF-8
Codec ID : S_TEXT/UTF8
Codec ID/Info : UTF-8 Plain Text
Title : Полные
Language : English
Default : No
Forced : No
Menu
00:00:00.000 : :Chapter 01
00:05:00.000 : :Chapter 02
00:10:00.000 : :Chapter 03
00:15:00.000 : :Chapter 04
00:20:00.000 : :Chapter 05
00:25:00.000 : :Chapter 06
00:30:00.000 : :Chapter 07
00:35:00.000 : :Chapter 08
00:40:00.000 : :Chapter 09
00:45:00.000 : :Chapter 10
00:50:00.000 : :Chapter 11
00:55:00.000 : :Chapter 12
01:00:00.000 : :Chapter 13
01:05:00.000 : :Chapter 14
01:10:00.000 : :Chapter 15
01:15:00.000 : :Chapter 16
01:20:00.000 : :Chapter 17
01:25:00.000 : :Chapter 18
01:30:00.000 : :Chapter 19
01:35:00.000 : :Chapter 20
01:40:00.000 : :Chapter 21
01:45:00.000 : :Chapter 22
01:50:00.000 : :Chapter 23
01:55:00.000 : :Chapter 24
02:00:00.000 : :Chapter 25

<center><img src=http://images.sevstar.net/images/40943335886189601677.png></center>

- Информация о фильме
Русское название: Сумерки. Сага. Новолуние
Оригинальное название: The Twilight Saga: New Moon
Год выхода: 2009
Жанр: Фэнтези, мелодрама
Режиссер: Крис Вайц
Выпущено: США
Продолжительность: 02:10:38
Перевод: Дублированный
В ролях: Кристен Стюарт , Тэйлор Лотнер , Роберт Паттинсон , Билли Бёрк , Эшли Грин , Анна Кендрик , Кристиан Серратос , Майкл Уэлш , Джастин Чон , Кристина Ястржембска-Сюжет фильма
Влюбиться в вампира — страшно и романтично. Но потерять любимого, решившего ценой разрыва спасти свою девушку от роли пешки в вечном противостоянии кланов «ночных охотников», — это просто невыносимо. Белла Свон мучительно переживает исчезновение Эдварда и безуспешно ищет забвения в дружбе с мальчишкой-индейцем Джейкобом Блэком. Она даже не подозревает, что её лучший друг — порождение ещё одного «народа Тьмы». Народа, куда более жестокого и опасного, чем аристократы-вампиры ...-Файл
Качество: BDRip 720p (исходник Blu-ray Disc)
Видео: 1280x534, 3707 Кбит/сек, 23,976 кадр/сек, AVC, x264, [email protected], 2.40:1, 0.226 Бит/[Пиксели*Кадры], 2pass
Аудио 1: AC-3, 448 Кбит/сек, 6 канала(ов), 48,0 КГц - Дублированный / Русский
Аудио 2: AC-3, 640 Кбит/сек, 6 канала(ов), 48,0 КГц - Оригинал / Английский
Субтитры: Русские | Полные, Английские | Полные
Чаптеры: Есть- -

Скриншоты & MediaInfo

MediaInfo

Format : Matroska
Format version : Version 2
File size : 4.38 GiB
Duration : 2h 10mn
Overall bit rate : 4 796 Kbps
Movie name : Сумерки.Сага.Новолуние.(2009).BDRip.720p.[envy]
Encoded date : UTC 2013-10-15 01:04:43
Writing application : mkvmerge v5.8.0 ('No Sleep / Pillow') built on Sep 2 2012 15:37:04
Writing library : libebml v1.2.3 + libmatroska v1.3.0
Video
ID : 1
Format : AVC
Format/Info : Advanced Video Codec
Format profile : [email protected]
Format settings, CABAC : Yes
Format settings, ReFrames : 11 frames
Codec ID : V_MPEG4/ISO/AVC
Duration : 2h 10mn
Bit rate : 3 707 Kbps
Width : 1 280 pixels
Height : 534 pixels
Display aspect ratio : 2.40:1
Frame rate mode : Constant
Frame rate : 23.976 fps
Color space : YUV
Chroma subsampling : 4:2:0
Bit depth : 8 bits
Scan type : Progressive
Bits/(Pixel*Frame) : 0.226
Stream size : 3.30 GiB (75%)
Title : Сумерки.Сага.Новолуние.(2009).BDRip.720p.[envy]
Writing library : x264 core 138 r2358 9e941d1
Encoding settings : cabac=1 / ref=11 / deblock=1:-3:-3 / analyse=0x3:0x133 / me=umh / subme=11 / psy=1 / psy_rd=1.00:0.00 / mixed_ref=1 / me_range=32 / chroma_me=1 / trellis=2 / 8x8dct=1 / cqm=0 / deadzone=21,11 / fast_pskip=0 / chroma_qp_offset=-2 / threads=12 / lookahead_threads=1 / sliced_threads=0 / nr=0 / decimate=1 / interlaced=0 / bluray_compat=0 / constrained_intra=0 / bframes=6 / b_pyramid=2 / b_adapt=2 / b_bias=0 / direct=3 / weightb=1 / open_gop=0 / weightp=2 / keyint=240 / keyint_min=23 / scenecut=40 / intra_refresh=0 / rc=2pass / mbtree=0 / bitrate=3707 / ratetol=2.0 / qcomp=0.60 / qpmin=0 / qpmax=69 / qpstep=4 / cplxblur=20.0 / qblur=0.5 / ip_ratio=1.40 / pb_ratio=1.30 / aq=1:0.70
Language : English
Default : Yes
Forced : No
Audio #1
ID : 2
Format : AC-3
Format/Info : Audio Coding 3
Mode extension : CM (complete main)
Format settings, Endianness : Big
Codec ID : A_AC3
Duration : 2h 10mn
Bit rate mode : Constant
Bit rate : 448 Kbps
Channel count : 6 channels
Channel positions : Front: L C R, Side: L R, LFE
Sampling rate : 48.0 KHz
Bit depth : 16 bits
Compression mode : Lossy
Stream size : 419 MiB (9%)
Title : Дубляж
Language : Russian
Default : Yes
Forced : No
Audio #2
ID : 3
Format : AC-3
Format/Info : Audio Coding 3
Mode extension : CM (complete main)
Format settings, Endianness : Big
Codec ID : A_AC3
Duration : 2h 10mn
Bit rate mode : Constant
Bit rate : 640 Kbps
Channel count : 6 channels
Channel positions : Front: L C R, Side: L R, LFE
Sampling rate : 48.0 KHz
Bit depth : 16 bits
Compression mode : Lossy
Stream size : 598 MiB (13%)
Title : Оригинал
Language : English
Default : No
Forced : No
Text #1
ID : 4
Format : UTF-8
Codec ID : S_TEXT/UTF8
Codec ID/Info : UTF-8 Plain Text
Title : Полные
Language : Russian
Default : No
Forced : No
Text #2
ID : 5
Format : UTF-8
Codec ID : S_TEXT/UTF8
Codec ID/Info : UTF-8 Plain Text
Title : Full
Language : English
Default : No
Forced : No
Menu
00:00:00.000 : :Chapter 01
00:05:00.000 : :Chapter 02
00:10:00.000 : :Chapter 03
00:15:00.000 : :Chapter 04
00:20:00.000 : :Chapter 05
00:25:00.000 : :Chapter 06
00:30:00.000 : :Chapter 07
00:35:00.000 : :Chapter 08
00:40:00.000 : :Chapter 09
00:45:00.000 : :Chapter 10
00:50:00.000 : :Chapter 11
00:55:00.000 : :Chapter 12
01:00:00.000 : :Chapter 13
01:05:00.000 : :Chapter 14
01:10:00.000 : :Chapter 15
01:15:00.000 : :Chapter 16
01:20:00.000 : :Chapter 17
01:25:00.000 : :Chapter 18
01:30:00.000 : :Chapter 19
01:35:00.000 : :Chapter 20
01:40:00.000 : :Chapter 21
01:45:00.000 : :Chapter 22
01:50:00.000 : :Chapter 23
01:55:00.000 : :Chapter 24
02:00:00.000 : :Chapter 25
02:05:00.000 : :Chapter 26

<center><img src=http://images.sevstar.net/images/05893487355614390746.png></center>

- Информация о фильме
Русское название: Сумерки. Сага. Затмение
Оригинальное название: The Twilight Saga: Eclipse
Год выхода: 2010
Жанр: Фэнтези, мелодрама
Режиссер: Крис Вайц
Выпущено: США
Продолжительность: 02:03:57
Перевод: Дублированный
В ролях: Кристен Стюарт, Роберт Паттинсон, Тэйлор Лотнер, Ксавьер Сэмюэл, Брайс Даллас Ховард, Анна Кендрик, Майкл Уэлш, Кристиан Серратос, Джексон Рэтбоун, Эшли Грин-Сюжет фильма
Сиэтл охвачен чередой таинственных убийств, а обуреваемая жаждой мести вампирша продолжает поиски Беллы, снова оказавшейся в смертельной опасности. Кроме того, находясь в эпицентре всех событий, Белла вынуждена делать выбор между любовью к Эдварду и дружбой с Джейкобом, зная что ее решение может послужить толчком к возобновлению давнего противостояния между вампирами и оборотнями.
Помимо всего прочего, ей предстоит принять еще одно важное решение: жизнь или смерть, ведь окончание средней школы уже не за горами.-Файл
Качество: BDRip 720p (исходник Blu-ray Disc)
Видео: 1280x534, 3966 Кбит/сек, 23,976 кадр/сек, AVC, x264, [email protected], 2.40:1, 0.242 Бит/[Пиксели*Кадры], 2pass
Аудио 1: AC-3, 448 Кбит/сек, 6 канала(ов), 48,0 КГц - Дублированный / Русский
Аудио 2: AC-3, 640 Кбит/сек, 6 канала(ов), 48,0 КГц - Оригинал / Английский
Субтитры: Русские | Полные, Английские | Полные
Чаптеры: Есть- -

Скриншоты & MediaInfo

MediaInfo

Format : Matroska
Format version : Version 2
File size : 4.36 GiB
Duration : 2h 3mn
Overall bit rate : 5 036 Kbps
Movie name : Сумерки.Сага.Затмение.(2010).BDRip.720p.[envy]
Encoded date : UTC 2013-10-16 01:08:09
Writing application : mkvmerge v5.8.0 ('No Sleep / Pillow') built on Sep 2 2012 15:37:04
Writing library : libebml v1.2.3 + libmatroska v1.3.0
Video
ID : 1
Format : AVC
Format/Info : Advanced Video Codec
Format profile : [email protected]
Format settings, CABAC : Yes
Format settings, ReFrames : 11 frames
Codec ID : V_MPEG4/ISO/AVC
Duration : 2h 3mn
Bit rate : 3 966 Kbps
Width : 1 280 pixels
Height : 534 pixels
Display aspect ratio : 2.40:1
Frame rate mode : Constant
Frame rate : 23.976 fps
Color space : YUV
Chroma subsampling : 4:2:0
Bit depth : 8 bits
Scan type : Progressive
Bits/(Pixel*Frame) : 0.242
Stream size : 3.33 GiB (76%)
Title : Сумерки.Сага.Затмение.(2010).BDRip.720p.[envy]
Writing library : x264 core 138 r2358 9e941d1
Encoding settings : cabac=1 / ref=11 / deblock=1:-3:-3 / analyse=0x3:0x133 / me=umh / subme=11 / psy=1 / psy_rd=1.00:0.00 / mixed_ref=1 / me_range=32 / chroma_me=1 / trellis=2 / 8x8dct=1 / cqm=0 / deadzone=21,11 / fast_pskip=0 / chroma_qp_offset=-2 / threads=12 / lookahead_threads=1 / sliced_threads=0 / nr=0 / decimate=1 / interlaced=0 / bluray_compat=0 / constrained_intra=0 / bframes=6 / b_pyramid=2 / b_adapt=2 / b_bias=0 / direct=3 / weightb=1 / open_gop=0 / weightp=2 / keyint=240 / keyint_min=23 / scenecut=40 / intra_refresh=0 / rc=2pass / mbtree=0 / bitrate=3966 / ratetol=2.0 / qcomp=0.60 / qpmin=0 / qpmax=69 / qpstep=4 / cplxblur=20.0 / qblur=0.5 / ip_ratio=1.40 / pb_ratio=1.30 / aq=1:0.70
Language : English
Default : Yes
Forced : No
Audio #1
ID : 2
Format : AC-3
Format/Info : Audio Coding 3
Mode extension : CM (complete main)
Format settings, Endianness : Big
Codec ID : A_AC3
Duration : 2h 3mn
Bit rate mode : Constant
Bit rate : 448 Kbps
Channel count : 6 channels
Channel positions : Front: L C R, Side: L R, LFE
Sampling rate : 48.0 KHz
Bit depth : 16 bits
Compression mode : Lossy
Stream size : 397 MiB (9%)
Title : Дубляж
Language : Russian
Default : Yes
Forced : No
Audio #2
ID : 3
Format : AC-3
Format/Info : Audio Coding 3
Mode extension : CM (complete main)
Format settings, Endianness : Big
Codec ID : A_AC3
Duration : 2h 3mn
Bit rate mode : Constant
Bit rate : 640 Kbps
Channel count : 6 channels
Channel positions : Front: L C R, Side: L R, LFE
Sampling rate : 48.0 KHz
Bit depth : 16 bits
Compression mode : Lossy
Stream size : 567 MiB (13%)
Title : Оригинал
Language : English
Default : No
Forced : No
Text #1
ID : 4
Format : UTF-8
Codec ID : S_TEXT/UTF8
Codec ID/Info : UTF-8 Plain Text
Title : Полные
Language : Russian
Default : No
Forced : No
Text #2
ID : 5
Format : UTF-8
Codec ID : S_TEXT/UTF8
Codec ID/Info : UTF-8 Plain Text
Title : Full
Language : English
Default : No
Forced : No
Menu
00:00:00.000 : :Chapter 01
00:08:47.693 : :Chapter 02
00:17:37.514 : :Chapter 03
00:25:17.516 : :Chapter 04
00:30:20.401 : :Chapter 05
00:36:45.077 : :Chapter 06
00:43:31.775 : :Chapter 07
00:50:13.760 : :Chapter 08
00:55:34.372 : :Chapter 09
01:00:11.608 : :Chapter 10
01:06:12.218 : :Chapter 11
01:13:05.214 : :Chapter 12
01:19:43.361 : :Chapter 13
01:25:15.819 : :Chapter 14
01:31:27.231 : :Chapter 15
01:35:54.957 : :Chapter 16
01:43:19.985 : :Chapter 17
01:51:53.498 : :Chapter 18

<center><img src=http://images.sevstar.net/images/28077916895240775554.png></center>

- Информация о фильме
Русское название: Сумерки. Сага. Рассвет: Часть 1
Оригинальное название: The Twilight Saga: Breaking Dawn - Part 1
Год выхода: 2011
Жанр: Фэнтези, драма, мелодрама
Режиссер: Билл Кондон
Выпущено: США
Продолжительность: 01:57:08
Перевод: Дублированный
В ролях: Кристен Стюарт, Роберт Паттинсон, Тэйлор Лотнер, Билли Бёрк, Питер Фачинелли, Элизабет Ризер, Келлан Латс, Никки Рид, Джексон Рэтбоун, Эшли Грин-Сюжет фильма
В четвертой части Белла Свон оказывается перед непростым выбором - сохранить жизнь себе или своему ребенку (наполовину вампиру, наполовину человеку). Она решает оставить малыша, но Эдвард и остальные члены семьи Каллен категорически против. Помощи Белле ждать не от кого, но она приходит неожиданно, от того, от кого её совсем не ждали. Вдвоем Белла и Розали пытаются сохранить жизнь малышу, даже не догадываясь, к каким ужасающим последствиям это приведет.-Файл
Качество: BDRip 720p (исходник Blu-ray Disc)
Видео: 1280x534, 4256 Кбит/сек, 23,976 кадр/сек, AVC, x264, [email protected], 2.40:1, 0.260 Бит/[Пиксели*Кадры], 2pass
Аудио 1: AC-3, 448 Кбит/сек, 6 канала(ов), 48,0 КГц - Дублированный / Русский
Аудио 2: AC-3, 640 Кбит/сек, 6 канала(ов), 48,0 КГц - Оригинал / Английский
Субтитры: Русские | Полные/Форсирующие, Английские | Полные/Форсирующие
Чаптеры: Есть- -

Скриншоты & MediaInfo

MediaInfo

Format : Matroska
Format version : Version 2
File size : 4.36 GiB
Duration : 1h 57mn
Overall bit rate : 5 333 Kbps
Movie name : Сумерки.Сага.Рассвет.Часть.1.(2011).BDRip.720p.[envy]
Encoded date : UTC 2013-10-17 01:03:41
Writing application : mkvmerge v5.8.0 ('No Sleep / Pillow') built on Sep 2 2012 15:37:04
Writing library : libebml v1.2.3 + libmatroska v1.3.0
Video
ID : 1
Format : AVC
Format/Info : Advanced Video Codec
Format profile : [email protected]
Format settings, CABAC : Yes
Format settings, ReFrames : 11 frames
Codec ID : V_MPEG4/ISO/AVC
Duration : 1h 57mn
Bit rate : 4 256 Kbps
Width : 1 280 pixels
Height : 534 pixels
Display aspect ratio : 2.40:1
Frame rate mode : Constant
Frame rate : 23.976 fps
Color space : YUV
Chroma subsampling : 4:2:0
Bit depth : 8 bits
Scan type : Progressive
Bits/(Pixel*Frame) : 0.260
Stream size : 3.39 GiB (78%)
Title : Сумерки.Сага.Рассвет.Часть.1.(2011).BDRip.720p.[envy]
Writing library : x264 core 138 r2358 9e941d1
Encoding settings : cabac=1 / ref=11 / deblock=1:-3:-3 / analyse=0x3:0x133 / me=umh / subme=11 / psy=1 / psy_rd=1.00:0.00 / mixed_ref=1 / me_range=32 / chroma_me=1 / trellis=2 / 8x8dct=1 / cqm=0 / deadzone=21,11 / fast_pskip=0 / chroma_qp_offset=-2 / threads=12 / lookahead_threads=1 / sliced_threads=0 / nr=0 / decimate=1 / interlaced=0 / bluray_compat=0 / constrained_intra=0 / bframes=6 / b_pyramid=2 / b_adapt=2 / b_bias=0 / direct=3 / weightb=1 / open_gop=0 / weightp=2 / keyint=240 / keyint_min=23 / scenecut=40 / intra_refresh=0 / rc=2pass / mbtree=0 / bitrate=4256 / ratetol=2.0 / qcomp=0.60 / qpmin=0 / qpmax=69 / qpstep=4 / cplxblur=20.0 / qblur=0.5 / ip_ratio=1.40 / pb_ratio=1.30 / aq=1:0.70
Language : English
Default : Yes
Forced : No
Audio #1
ID : 2
Format : AC-3
Format/Info : Audio Coding 3
Mode extension : CM (complete main)
Format settings, Endianness : Big
Codec ID : A_AC3
Duration : 1h 57mn
Bit rate mode : Constant
Bit rate : 448 Kbps
Channel count : 6 channels
Channel positions : Front: L C R, Side: L R, LFE
Sampling rate : 48.0 KHz
Bit depth : 16 bits
Compression mode : Lossy
Stream size : 375 MiB (8%)
Title : Дубляж
Language : Russian
Default : Yes
Forced : No
Audio #2
ID : 3
Format : AC-3
Format/Info : Audio Coding 3
Mode extension : CM (complete main)
Format settings, Endianness : Big
Codec ID : A_AC3
Duration : 1h 57mn
Bit rate mode : Constant
Bit rate : 640 Kbps
Channel count : 6 channels
Channel positions : Front: L C R, Side: L R, LFE
Sampling rate : 48.0 KHz
Bit depth : 16 bits
Compression mode : Lossy
Stream size : 536 MiB (12%)
Title : Оригинал
Language : English
Default : No
Forced : No
Text #1
ID : 4
Format : UTF-8
Codec ID : S_TEXT/UTF8
Codec ID/Info : UTF-8 Plain Text
Title : Форсирующие
Language : Russian
Default : Yes
Forced : No
Text #2
ID : 5
Format : UTF-8
Codec ID : S_TEXT/UTF8
Codec ID/Info : UTF-8 Plain Text
Title : Полные
Language : Russian
Default : No
Forced : No
Text #3
ID : 6
Format : UTF-8
Codec ID : S_TEXT/UTF8
Codec ID/Info : UTF-8 Plain Text
Title : Force
Language : English
Default : No
Forced : No
Text #4
ID : 7
Format : UTF-8
Codec ID : S_TEXT/UTF8
Codec ID/Info : UTF-8 Plain Text
Title : Full
Language : English
Default : No
Forced : No
Menu
00:00:00.000 : :Chapter 01
00:08:10.114 : :Chapter 02
00:11:23.682 : :Chapter 03
00:16:30.739 : :Chapter 04
00:21:03.762 : :Chapter 05
00:29:28.266 : :Chapter 06
00:34:43.289 : :Chapter 07
00:41:15.556 : :Chapter 08
00:47:42.484 : :Chapter 09
00:55:57.812 : :Chapter 10
01:04:21.439 : :Chapter 11
01:09:47.057 : :Chapter 12
01:13:47.381 : :Chapter 13
01:20:50.804 : :Chapter 14
01:28:22.964 : :Chapter 15
01:36:25.488 : :Chapter 16
01:41:44.097 : :Chapter 17
01:46:51.696 : :Chapter 18

<center><img src=http://images.sevstar.net/images/86317532973921986738.png></center>

- Информация о фильме
Русское название: Сумерки. Сага. Рассвет: Часть 2
Оригинальное название: The Twilight Saga: Breaking Dawn - Part 2
Год выхода: 2012
Жанр: Фэнтези, драма, мелодрама, приключения
Режиссер: Билл Кондон
Выпущено: США
Продолжительность: 01:55:12
Перевод: Дублированный
В ролях: Кристен Стюарт, Роберт Паттинсон, Тэйлор Лотнер, Питер Фачинелли, Элизабет Ризер, Эшли Грин, Джексон Рэтбоун, Келлан Латс, Никки Ридб, Билли Бёрк-Сюжет фильма
Белла, став вампиром, постепенно свыкается со своей новой природой. В этом ей помогают Эдвард и остальные члены семьи Калленов. К тому же теперь у Беллы есть дочь Ренесми и вечность впереди. Джейкоб, запечатленный с Ренесми, становится для девочки другом и наставником. Ненадолго для героев наступают спокойные, счастливые дни.-Файл
Качество: BDRip 720p (исходник Blu-ray Disc)
Видео: 1280x534, 4344 Кбит/сек, 23,976 кадр/сек, AVC, x264, [email protected], 2.40:1, 0.265 Бит/[Пиксели*Кадры], 2pass
Аудио 1: AC-3, 448 Кбит/сек, 6 канала(ов), 48,0 КГц - Дублированный / Русский
Аудио 2: AC-3, 640 Кбит/сек, 6 канала(ов), 48,0 КГц - Оригинал / Английский
Субтитры: Русские | Полные, Английские | Полные
Чаптеры: Есть- -

Скриншоты & MediaInfo

MediaInfo

Format : Matroska
Format version : Version 2
File size : 4.37 GiB
Duration : 1h 55mn
Overall bit rate : 5 434 Kbps
Movie name : Сумерки.Сага.Рассвет.Часть.2.(2012).BDRip.720p.[envy]
Encoded date : UTC 2013-10-17 11:02:04
Writing application : mkvmerge v5.8.0 ('No Sleep / Pillow') built on Sep 2 2012 15:37:04
Writing library : libebml v1.2.3 + libmatroska v1.3.0
Video
ID : 1
Format : AVC
Format/Info : Advanced Video Codec
Format profile : [email protected]
Format settings, CABAC : Yes
Format settings, ReFrames : 11 frames
Codec ID : V_MPEG4/ISO/AVC
Duration : 1h 55mn
Bit rate : 4 344 Kbps
Width : 1 280 pixels
Height : 534 pixels
Display aspect ratio : 2.40:1
Frame rate mode : Constant
Frame rate : 23.976 fps
Color space : YUV
Chroma subsampling : 4:2:0
Bit depth : 8 bits
Scan type : Progressive
Bits/(Pixel*Frame) : 0.265
Stream size : 3.41 GiB (78%)
Title : Сумерки.Сага.Рассвет.Часть.2.(2012).BDRip.720p.[envy]
Writing library : x264 core 138 r2358 9e941d1
Encoding settings : cabac=1 / ref=11 / deblock=1:-3:-3 / analyse=0x3:0x133 / me=umh / subme=11 / psy=1 / psy_rd=1.00:0.00 / mixed_ref=1 / me_range=32 / chroma_me=1 / trellis=2 / 8x8dct=1 / cqm=0 / deadzone=21,11 / fast_pskip=0 / chroma_qp_offset=-2 / threads=12 / lookahead_threads=1 / sliced_threads=0 / nr=0 / decimate=1 / interlaced=0 / bluray_compat=0 / constrained_intra=0 / bframes=6 / b_pyramid=2 / b_adapt=2 / b_bias=0 / direct=3 / weightb=1 / open_gop=0 / weightp=2 / keyint=240 / keyint_min=23 / scenecut=40 / intra_refresh=0 / rc=2pass / mbtree=0 / bitrate=4344 / ratetol=2.0 / qcomp=0.60 / qpmin=0 / qpmax=69 / qpstep=4 / cplxblur=20.0 / qblur=0.5 / ip_ratio=1.40 / pb_ratio=1.30 / aq=1:0.70
Language : English
Default : Yes
Forced : No
Audio #1
ID : 2
Format : AC-3
Format/Info : Audio Coding 3
Mode extension : CM (complete main)
Format settings, Endianness : Big
Codec ID : A_AC3
Duration : 1h 55mn
Bit rate mode : Constant
Bit rate : 448 Kbps
Channel count : 6 channels
Channel positions : Front: L C R, Side: L R, LFE
Sampling rate : 48.0 KHz
Bit depth : 16 bits
Compression mode : Lossy
Stream size : 369 MiB (8%)
Title : Дубляж
Language : Russian
Default : Yes
Forced : No
Audio #2
ID : 3
Format : AC-3
Format/Info : Audio Coding 3
Mode extension : CM (complete main)
Format settings, Endianness : Big
Codec ID : A_AC3
Duration : 1h 55mn
Bit rate mode : Constant
Bit rate : 640 Kbps
Channel count : 6 channels
Channel positions : Front: L C R, Side: L R, LFE
Sampling rate : 48.0 KHz
Bit depth : 16 bits
Compression mode : Lossy
Stream size : 527 MiB (12%)
Title : Оригинал
Language : English
Default : No
Forced : No
Text #1
ID : 4
Format : UTF-8
Codec ID : S_TEXT/UTF8
Codec ID/Info : UTF-8 Plain Text
Title : Полные
Language : Russian
Default : No
Forced : No
Text #2
ID : 5
Format : UTF-8
Codec ID : S_TEXT/UTF8
Codec ID/Info : UTF-8 Plain Text
Title : Full
Language : English
Default : No
Forced : No
Menu
00:00:00.000 : :Chapter 01
00:08:10.114 : :Chapter 02
00:11:23.682 : :Chapter 03
00:16:30.739 : :Chapter 04
00:21:03.762 : :Chapter 05
00:29:28.266 : :Chapter 06
00:34:43.289 : :Chapter 07
00:41:15.556 : :Chapter 08
00:47:42.484 : :Chapter 09
00:55:57.812 : :Chapter 10
01:04:21.439 : :Chapter 11
01:09:47.057 : :Chapter 12
01:13:47.381 : :Chapter 13
01:20:50.804 : :Chapter 14
01:28:22.964 : :Chapter 15
01:36:25.488 : :Chapter 16
01:41:44.097 : :Chapter 17
01:46:51.696 : :Chapter 18
01:51:46.660 : :Chapter 19
-При поддержке:
[Профиль]  [ЛС] 
Похожие темы
Форум Тема Автор Размер
Аудиокниги Уэйс Маргарет, Хикмен Трейси - "Драконы осенних сумерек" [SHRDLU, 2011] Oldket 577 MB
Показать сообщения:    
Ответить на тему

Текущее время: 09-Дек 08:44

Часовой пояс: UTC + 3



Вы не можете начинать темы
Вы не можете отвечать на сообщения
Вы не можете редактировать свои сообщения
Вы не можете удалять свои сообщения
Вы не можете голосовать в опросах
Вы не можете прикреплять файлы к сообщениям
Вы не можете скачивать файлы