Ошибка времени / Time Lapse (2014) BDRip 720p | L2

Ответить на тему
Статистика раздачи [Обновить пиров]
Скачал: [ 15 ]
 
   
 
 
Автор
Сообщение

-=DoC(ToP)=-™ ®

Стаж: 5 лет 1 месяц

Сообщений: 472

Откуда: СЕВАСТОПОЛЬ

Создавать темы 14-Ноя-2015 14:45

[Цитировать] 


Оригинальное название: Time Lapse
Название: Ошибка времени
Жанр: Фантастика, Триллер
Режиссёр: Брэдли Кинг
Год: 2014
В ролях: Даниэль Панабэйкер, Мэтью О’Лири, Джордж Финн, Джон Рис-Дэвис, Эймин Джозеф, Джейсон Спайсэк, Дэвид Фильоли, Шэрон Мофан, Джудит Дрэйк, Марк С. Хэнсон

Трое приятелей - подающий надежды художник и по совместительству управдом Финн, его девушка официантка и писательница Кэлли и их друг Джаспер, помешанный на собачьих гонках, — находят в комнате соседа-ученого странное изобретение — машину, печатающую фотографии из будущего дня. Теперь Джаспер знает, на каких собак нужно ставить, и Финн и Кэлли могут, наконец, посвятить себя любимым занятиям. Но вскоре визуальные пророчества загадочной машины начинают обескураживать и пугать героев…
Информация:
Страна: США
Студия: Royal Pictures
Продолжительность: 01:44
Перевод: Любительский (двуголосый закадровый) Автор перевода: RAIM & GUGU
Кодек: MPEG-4 AVC,
Качество: BDRip 720p
Видео: 6195 Кбит/с, 1280x720
Звук: Русский (AC3, 2 ch, 192 Кбит/с), английский (AC3, 6 ch, 640 Кбит/с)
Субтитры: Отсутствуют
--

Mediainfo:

Общее
Уникальный идентификатор : 242007423528307105389034998241567274634 (0xB610EF331DAD12D093AD72E919F5768A)
Полное имя : D:МедиаОшибка времени Time Lapse (2014) BDRip 720pTime Lapse.2014.BDRip.720p.mkv
Формат : Matroska
Версия формата : Version 4 / Version 2
Размер файла : 5,11 Гбайт
Продолжительность : 1 ч. 44 м.
Общий поток : 7029 Кбит/сек
Дата кодирования : UTC 2015-06-05 02:10:35
Программа кодирования : mkvmerge v7.9.0 ('Birds') 64bit
Библиотека кодирования : libebml v1.3.1 + libmatroska v1.4.2
DURATION : 01:39:36.844000000
NUMBER_OF_FRAMES : 1170
NUMBER_OF_BYTES : 39589
_STATISTICS_WRITING_APP : mkvmerge v7.9.0 ('Birds') 64bit
_STATISTICS_WRITING_DATE_UTC : 2015-06-05 02:10:35
_STATISTICS_TAGS : BPS DURATION NUMBER_OF_FRAMES NUMBER_OF_BYTES
Видео
Идентификатор : 1
Формат : AVC
Формат/Информация : Advanced Video Codec
Профиль формата : [email protected]
Параметр CABAC формата : Да
Параметр ReFrames формата : 9 кадров
Идентификатор кодека : V_MPEG4/ISO/AVC
Продолжительность : 1 ч. 44 м.
Битрейт : 6200 Кбит/сек
Ширина : 1280 пикселей
Высота : 720 пикселей
Соотношение сторон : 16:9
Режим частоты кадров : Постоянный
Частота кадров : 23,976 кадра/сек
Цветовое пространство : YUV
Субдискретизация насыщенности : 4:2:0
Битовая глубина : 8 бит
Тип развёртки : Прогрессивная
Бит/(Пиксели*Кадры) : 0.281
Размер потока : 4,41 Гбайт (86%)
Библиотека кодирования : x264 core 146 r2538 121396c
Настройки программы : cabac=1 / ref=9 / deblock=1:-3:-3 / analyse=0x3:0x133 / me=umh / subme=10 / psy=1 / psy_rd=1.00:0.00 / mixed_ref=1 / me_range=32 / chroma_me=1 / trellis=2 / 8x8dct=1 / cqm=0 / deadzone=21,11 / fast_pskip=0 / chroma_qp_offset=-2 / threads=12 / lookahead_threads=2 / sliced_threads=0 / nr=0 / decimate=1 / interlaced=0 / bluray_compat=0 / constrained_intra=0 / bframes=8 / b_pyramid=2 / b_adapt=2 / b_bias=0 / direct=3 / weightb=1 / open_gop=0 / weightp=2 / keyint=250 / keyint_min=23 / scenecut=40 / intra_refresh=0 / rc_lookahead=40 / rc=2pass / mbtree=0 / bitrate=6200 / ratetol=1.0 / qcomp=0.65 / qpmin=0 / qpmax=69 / qpstep=4 / cplxblur=20.0 / qblur=0.5 / vbv_maxrate=62500 / vbv_bufsize=78125 / nal_hrd=none / filler=0 / ip_ratio=1.40 / pb_ratio=1.30 / aq=3:0.70
Язык : English
Default : Да
Forced : Нет
DURATION : 01:44:08.242000000
NUMBER_OF_FRAMES : 149808
NUMBER_OF_BYTES : 4838099873
_STATISTICS_WRITING_APP : mkvmerge v7.9.0 ('Birds') 64bit
_STATISTICS_WRITING_DATE_UTC : 2015-06-05 02:10:35
_STATISTICS_TAGS : BPS DURATION NUMBER_OF_FRAMES NUMBER_OF_BYTES
Аудио #1
Идентификатор : 2
Формат : AC-3
Формат/Информация : Audio Coding 3
Расширение режима : CM (complete main)
Параметр Endianness формата : Big
Идентификатор кодека : A_AC3
Продолжительность : 1 ч. 44 м.
Вид битрейта : Постоянный
Битрейт : 192 Кбит/сек
Каналы : 2 канала
Расположение каналов : Front: L R
Частота : 48,0 КГц
Метод сжатия : С потерями
Размер потока : 143 Мбайт (3%)
Заголовок : DVO / RAIM & GUGU
Язык : Russian
Default : Да
Forced : Нет
Аудио #2
Идентификатор : 3
Формат : AC-3
Формат/Информация : Audio Coding 3
Расширение режима : CM (complete main)
Параметр Endianness формата : Big
Идентификатор кодека : A_AC3
Продолжительность : 1 ч. 44 м.
Вид битрейта : Постоянный
Битрейт : 640 Кбит/сек
Каналы : 6 каналов
Расположение каналов : Front: L C R, Side: L R, LFE
Частота : 48,0 КГц
Метод сжатия : С потерями
Размер потока : 477 Мбайт (9%)
Заголовок : Original
Язык : English
Default : Нет
Forced : Нет
Текст #1
Идентификатор : 4
Формат : UTF-8
Идентификатор кодека : S_TEXT/UTF8
Идентификатор кодека/Информация : UTF-8 Plain Text
Заголовок : Original
Язык : English
Default : Нет
Forced : Нет
Текст #2
Идентификатор : 5
Формат : UTF-8
Идентификатор кодека : S_TEXT/UTF8
Идентификатор кодека/Информация : UTF-8 Plain Text
Заголовок : Original / SDH
Язык : English
Default : Нет
Forced : Нет
Меню
00:00:00.000 : en:1
00:04:39.528 : en:2
00:14:20.567 : en:3
00:25:30.403 : en:4
00:34:59.597 : en:5
00:44:53.983 : en:6
00:55:05.302 : en:7
01:00:37.717 : en:8
01:10:58.421 : en:9
01:18:21.488 : en:10
01:28:01.734 : en:11
01:38:57.974 : en:12
- --
[Профиль]  [ЛС] 
Похожие темы
Форум Тема Автор Размер
Наше кино Работа над ошибками (Сергей Гиргель) [2015, Мелодрама, HDTVRip] Олег_SevStar 1,37 GB
Показать сообщения:    
Ответить на тему

Текущее время: 04-Дек 23:19

Часовой пояс: UTC + 3



Вы не можете начинать темы
Вы не можете отвечать на сообщения
Вы не можете редактировать свои сообщения
Вы не можете удалять свои сообщения
Вы не можете голосовать в опросах
Вы не можете прикреплять файлы к сообщениям
Вы не можете скачивать файлы