Пиковая дама: Черный обряд (2015) WEB-DLRip-AVC | iTunes

Ответить на тему
Статистика раздачи [Обновить пиров]
Качаю: [ 1 ]
Скачал: [ 45 ]
 
   
 
 
Автор
Сообщение

-=DoC(ToP)=-™ ®

Стаж: 5 лет 1 месяц

Сообщений: 472

Откуда: СЕВАСТОПОЛЬ

Создавать темы 17-Ноя-2015 12:16

[Цитировать] 

Информация о фильме
Название: Пиковая дама: Черный обряд
Год выхода: 2015
Жанр: ужасы
Режиссер: Святослав Подгаевский
В ролях: Алина Бабак, Игорь Хрипунов, Владимир Селезнев, Валерия Дмитриева, Сергей Походаев, Евгения Лоза, Валентин Садики, Мария Фомина, Максим Стоянов, Наталья Домерецкая
О фильме:
С древних времен считается, что любое зеркало может стать порталом в мир мертвых. Одним из старейших мистических ритуалов с зеркалом является обряд вызова Пиковой Дамы. Четверо подростков в шутку решают призвать ее, но даже не подозревают, на какие ужасы они обрекли себя и своих близких. Теперь мстительный призрак не остановится, пока не получит их души.

Выпущено: Россия
Продолжительность: 01:32:50
Озвучивание: Оригинальное [iTunes]
Файл
Формат: MKV
Качество: WEB-DLRip-AVC
Видео: MPEG-4 AVC, ~1853 kb/s, 1024x576
Аудио: AC3, 384 kb/s (6 ch)

M/I

General
Unique ID : 279987192287615076820405514022112266551 (0xD2A3925F552FC9037A6E57E0EA410937)
Complete name : F:Пиковая дама- Черный обряд.(2015).WEB-DLRIP_AVC.[-=DoMiNo=-].mkv
Format : Matroska
Format version : Version 4 / Version 2
File size : 1.45 GiB
Duration : 1h 32mn
Overall bit rate : 2 240 Kbps
Movie name : Пиковая дама: Черный обряд
Writing application : XviD4PSP 7.0.177
Writing library : Lavf56.25.101
DATE : 2015
GENRE : ужасы
ENCODING_INFO : MATROSKA,WEBM > MKV / H264 > X264 VBR-2P 1853kbps Custom / AC3 > COPY
DEION : С древних времен считается, что любое зеркало может стать порталом в мир мертвых. Одним из старейших мистических ритуалов с зеркалом является обряд вызова Пиковой Дамы. Четверо подростков в шутку решают призвать ее, но даже не подозревают, на какие ужасы они обрекли себя и своих близких. Теперь мстительный призрак не остановится, пока не получит их души.
ITUNEXTC : ru-movie|16+|375|
ACTORS : Алина Бабак, Игорь Хрипунов, Владимир Селезнев, Валерия Дмитриева, Сергей Походаев, Евгения Лоза, Валентин Садики, Мария Фомина, Максим Стоянов, Наталья Домерецкая, показать всех
DIRECTOR : Святослав Подгаевский
PRODUCER : Георгий Малков, Владимир Поляков, Даниил Махорт
WRITER : Святослав Подгаевский
COUNTRY : Россия
RATING : 5.195
IMDB_RATING : 6.20
Language : und
FILENAME : cover.png
Attachements : cover.png
Video
ID : 1
Format : AVC
Format/Info : Advanced Video Codec
Format profile : [email protected]
Format settings, CABAC : Yes
Format settings, ReFrames : 12 frames
Codec ID : V_MPEG4/ISO/AVC
Duration : 1h 32mn
Bit rate : 1 853 Kbps
Width : 1 024 pixels
Height : 576 pixels
Display aspect ratio : 16:9
Frame rate mode : Constant
Frame rate : 24.000 fps
Color space : YUV
Chroma subsampling : 4:2:0
Bit depth : 8 bits
Scan type : Progressive
Bits/(Pixel*Frame) : 0.131
Stream size : 1.17 GiB (81%)
Writing library : x264 core 148 r2597M e86f3a1
Encoding settings : cabac=1 / ref=12 / deblock=1:-3:-3 / analyse=0x3:0x133 / me=umh / subme=11 / psy=1 / psy_rd=1.00:0.20 / mixed_ref=1 / me_range=32 / chroma_me=1 / trellis=2 / 8x8dct=1 / cqm=0 / deadzone=21,11 / fast_pskip=0 / chroma_qp_offset=-3 / threads=5 / lookahead_threads=1 / sliced_threads=0 / nr=0 / decimate=1 / interlaced=0 / bluray_compat=0 / constrained_intra=0 / bframes=11 / b_pyramid=2 / b_adapt=2 / b_bias=0 / direct=1 / weightb=1 / open_gop=0 / weightp=2 / keyint=240 / keyint_min=24 / scenecut=40 / intra_refresh=0 / rc=2pass / mbtree=0 / bitrate=1853 / ratetol=1.0 / qcomp=0.60 / qpmin=0 / qpmax=69 / qpstep=4 / cplxblur=20.0 / qblur=0.5 / ip_ratio=1.40 / pb_ratio=1.30 / aq=1:1.00
Language : English
Default : Yes
Forced : No
Color range : Limited
Color primaries : BT.709
Transfer characteristics : BT.709
Matrix coefficients : BT.709
Audio
ID : 2
Format : AC-3
Format/Info : Audio Coding 3
Mode extension : CM (complete main)
Format settings, Endianness : Big
Codec ID : A_AC3
Duration : 1h 32mn
Bit rate mode : Constant
Bit rate : 384 Kbps
Channel(s) : 6 channels
Channel positions : Front: L C R, Side: L R, LFE
Sampling rate : 48.0 KHz
Bit depth : 32 bits
Compression mode : Lossy
Stream size : 255 MiB (17%)
Language : Russian
Default : Yes
Forced : No
Menu
00:00:00.000 : :Глава 1
00:05:31.000 : :Глава 2
00:10:55.000 : :Глава 3
00:16:23.000 : :Глава 4
00:21:30.000 : :Глава 5
00:26:59.000 : :Глава 6
00:32:14.000 : :Глава 7
00:37:45.000 : :Глава 8
00:44:11.000 : :Глава 9
00:50:48.000 : :Глава 10
00:56:36.000 : :Глава 11
01:02:21.000 : :Глава 12
01:07:45.000 : :Глава 13
01:12:59.000 : :Глава 14
01:18:30.000 : :Глава 15
01:22:33.000 : :Глава 16
01:27:18.000 : :Глава 17

Скриншоты

[Профиль]  [ЛС] 

Михаил_SevStar

Стаж: 7 лет 8 месяцев

Сообщений: 28

Создавать темы 17-Дек-2015 08:56 (спустя 29 дней)

[Цитировать] 

ПОЙДЁТ 1-2 РАЗА ГЛЯНУТЬ!!!
[Профиль]  [ЛС] 

Михаил_SevStar

Стаж: 7 лет 8 месяцев

Сообщений: 28

Создавать темы 21-Май-2016 13:51 (спустя 5 месяцев 4 дня)

[Цитировать] 

НОРМ,ПОЙДЁТ!!!
[Профиль]  [ЛС] 
Показать сообщения:    
Ответить на тему

Текущее время: 03-Дек 09:46

Часовой пояс: UTC + 3



Вы не можете начинать темы
Вы не можете отвечать на сообщения
Вы не можете редактировать свои сообщения
Вы не можете удалять свои сообщения
Вы не можете голосовать в опросах
Вы не можете прикреплять файлы к сообщениям
Вы не можете скачивать файлы