Потерявшиеся на солнце / Lost in the Sun (2015) WEB-DL 720p | L1

Ответить на тему
Статистика раздачи [Обновить пиров]
Скачал: [ 8 ]
 
   
 
 
Автор
Сообщение

-=DoC(ToP)=-™ ®

Стаж: 5 лет 1 месяц

Сообщений: 472

Откуда: СЕВАСТОПОЛЬ

Создавать темы 27-Ноя-2015 19:55

[Цитировать] 

Информация о фильме
Название: Потерявшиеся на солнце
Оригинальное название: Lost in the Sun
Год выхода: 2015
Жанр: боевик, триллер, драма
Режиссер: Трей Нельсон
В ролях: Джош Дюамель, Джош Уиггинс, Линн Коллинс, Эмма Фурманн, Дебора Эбботт, Тиган Джей Бойд, Ребекка Чалив, Julie Cude-Eaton, Лоуренс Дин, Серина Дэннис
О фильме: Фильм о Джоне, он мелкий мошенник. Он встречает подростка по имени Луи и отправляется с ним в дорожное приключение, где обучает его своим темным делам.

Выпущено: США / Floren Shieh Productions
Продолжительность: 01:35:41
Озвучивание: Любительское (одноголосое) [datynet], перевод [Куценко]

Файл
Формат: MKV
Качество: WEB-DL 720p
Видео: MPEG-4 AVC, 3890 kb/s, 1280x530
Аудио: Russian: MP3, 256 kb/s (2 ch) / English: AC3, 384 kb/s (6 ch)
Субтитры: English

MI

Format : Matroska
Format version : Version 2
File size : 3.09 GiB
Duration : 1h 35mn
Overall bit rate : 4 622 Kbps
Encoded date : UTC 2015-11-25 14:39:50
Writing application : mkvmerge v7.8.0 ('River Man') 32bit built on Apr 3 2015 12:11:22
Writing library : libebml v1.3.1 + libmatroska v1.4.2
Video
ID : 1
Format : AVC
Format/Info : Advanced Video Codec
Format profile : [email protected]
Format settings, CABAC : No
Format settings, ReFrames : 2 frames
Codec ID : V_MPEG4/ISO/AVC
Duration : 1h 35mn
Bit rate : 3 890 Kbps
Width : 1 280 pixels
Height : 530 pixels
Display aspect ratio : 2.40:1
Frame rate mode : Constant
Frame rate : 23.976 fps
Color space : YUV
Chroma subsampling : 4:2:0
Bit depth : 8 bits
Scan type : Progressive
Bits/(Pixel*Frame) : 0.239
Stream size : 2.60 GiB (84%)
Language : English
Default : Yes
Forced : No
Color range : Limited
Color primaries : BT.709
Transfer characteristics : BT.709
Matrix coefficients : BT.709
Audio #1
ID : 2
Format : MPEG Audio
Format version : Version 1
Format profile : Layer 3
Codec ID : A_MPEG/L3
Codec ID/Hint : MP3
Duration : 1h 35mn
Bit rate mode : Constant
Bit rate : 256 Kbps
Channel(s) : 2 channels
Sampling rate : 44.1 KHz
Compression mode : Lossy
Stream size : 175 MiB (6%)
Language : Russian
Default : Yes
Forced : No
Audio #2
ID : 3
Format : AC-3
Format/Info : Audio Coding 3
Mode extension : CM (complete main)
Format settings, Endianness : Big
Codec ID : A_AC3
Duration : 1h 35mn
Bit rate mode : Constant
Bit rate : 384 Kbps
Channel(s) : 6 channels
Channel positions : Front: L C R, Side: L R, LFE
Sampling rate : 48.0 KHz
Bit depth : 16 bits
Compression mode : Lossy
Stream size : 263 MiB (8%)
Language : English
Default : No
Forced : No
Text
ID : 4
Format : UTF-8
Codec ID : S_TEXT/UTF8
Codec ID/Info : UTF-8 Plain Text
Language : English
Default : No
Forced : No
Menu
00:00:00.000 : en:Chapter 1
00:09:21.000 : en:Chapter 2
00:17:05.000 : en:Chapter 3
00:23:32.000 : en:Chapter 4
00:33:02.000 : en:Chapter 5
00:42:55.000 : en:Chapter 6
00:52:28.000 : en:Chapter 7
01:04:10.000 : en:Chapter 8
01:15:14.000 : en:Chapter 9
01:23:30.000 : en:Chapter 10
01:30:27.000 : en:Chapter 11

Скриншоты



[Профиль]  [ЛС] 
Похожие темы
Форум Тема Автор Размер
Сериалы Потерянное поколение / Examurai Sengoku [TV] [1 - 24 + 12.5 из 24] [приключения, самурайский боевик] [HDTV] [JAP+RUS(int) Любительский] MANGA 5,25 GB
Документальные Стив Джобс. Потерянное интервью / Steve Jobs: The Lost Interview (Пол Сен) [2012 г., документальный, DVDRip] Blondy 741 MB
Показать сообщения:    
Ответить на тему

Текущее время: 09-Дек 14:33

Часовой пояс: UTC + 3



Вы не можете начинать темы
Вы не можете отвечать на сообщения
Вы не можете редактировать свои сообщения
Вы не можете удалять свои сообщения
Вы не можете голосовать в опросах
Вы не можете прикреплять файлы к сообщениям
Вы не можете скачивать файлы