Тихий Дон (1-14 серии из 14) (Сергей Урсуляк) [2015 г., Драма, SATRip]

Ответить на тему
Статистика раздачи [Обновить пиров]
Качаю: [ 1 ]
Скачал: [ 10 ]
 
   
 
 
Автор
Сообщение

mihis ®

Стаж: 2 года 1 месяц

Сообщений: 221

Создавать темы 29-Ноя-2015 17:29

[Цитировать] 

Тихий Дон14 серий Год выпуска: 2015
Страна: Россия, Москино
Жанр: Драма
Продолжительность: 14 x ~ 00:43:00
Перевод: Не требуется
Cубтитры: нет
Режиссер: Сергей Урсуляк
В ролях: Евгений Ткачук, Полина Чернышова, Сергей Маковецкий, Людмила Зайцева, Артур Иванов, Анастасия Веденская, Дарья Урсуляк, Никита Ефремов, Александр Яценко, Надежда Лумпова, Виталия Корниенко, Захар Соколов, Пётр Воробьёв, Валерий Жуков, Александр Потапов, Александр Завьялов, Станислав Костецкий, Иван Федотов, Константин Белошапка, Иван Лапин, Тимофей Трибунцев, Александр Горбатов (II), Иван Орлов, Юлия Сулес, Юлия Полынская, Полина Пушкарук, Ирина Латушко, Нина Андронаки, Лика Нифонтова, Дмитрий Белякин, Наталья Савченко, Константин Желдин, Антон Кузнецов, Сергей Сотников
Описание: Экранизация одноименного романа Михаила Шолохова. Фильм охватывает события Первой мировой войны, Октябрьской революции и Гражданской войны. Действие начинается в 1912 году. Герои картины – соседи, станичники, казаки с хутора Татарский станицы Вешенской - живут на этой земле испокон веков, они связаны родством, дружбой, любовью, общим трудом и военной службой. Но этот прочный и самодостаточный мир со своим неповторимым жизненным укладом, привычками и особой системой взглядов и ценностей рушится под натиском кровавой смуты и революции. Дон разделен ненавистью. Казавшиеся незыблемыми вековые основы донской жизни – земля, хутор, семья, воинский долг растворяются в горниле братоубийственной войны. Семьи Мелеховых, Коршуновых, Астаховых, вовлечены в круговорот военных и политических событий.

Качество: SATRip
Формат: AVI
Видео кодек: XviD
Аудио кодек: AC3
Видео: 720x400 (1.80:1), 25 fps, XviD build 50 ~1800 kbps avg, 0.25 bit/pixel
Аудио: 48 kHz, AC3 Dolby Digital, 2/0 (L,R) ch, ~192.00 kbps avg

MI

Общее
Полное имя : E:\Video\Тихий Дон 2015 SATRip\01.avi
Формат : AVI
Формат/Информация : Audio Video Interleave
Размер файла : 628 Мбайт
Продолжительность : 43 м.
Общий поток : 2001 Кбит/сек
Программа кодирования : VirtualDubMod 1.5.10.3 | www.virtualdub-fr.org || (build 2550/release)
Библиотека кодирования : VirtualDubMod build 2550/release
Видео
Идентификатор : 0
Формат : MPEG-4 Visual
Профиль формата : Advanced [email protected]
Параметр BVOP формата : 2
Параметр QPel формата : Нет
Параметр GMC формата : Без точки перехода
Параметр матрицы формата : Default (H.263)
Идентификатор кодека : XVID
Идентификатор кодека/Подсказка : XviD
Продолжительность : 43 м.
Битрейт : 1800 Кбит/сек
Ширина : 720 пикселей
Высота : 400 пикселей
Соотношение сторон : 16:9
Частота кадров : 25,000 кадров/сек
Цветовое пространство : YUV
Субдискретизация насыщенности : 4:2:0
Битовая глубина : 8 бит
Тип развёртки : Прогрессивная
Метод сжатия : С потерями
Бит/(Пиксели*Кадры) : 0.250
Размер потока : 565 Мбайт (90%)
Библиотека кодирования : XviD 1.2.1 (UTC 2008-12-04)
Аудио
Идентификатор : 1
Формат : AC-3
Формат/Информация : Audio Coding 3
Расширение режима : CM (complete main)
Параметр Endianness формата : Big
Идентификатор кодека : 2000
Продолжительность : 43 м.
Вид битрейта : Постоянный
Битрейт : 192 Кбит/сек
Каналы : 2 канала
Расположение каналов : Front: L R
Частота : 48,0 КГц
Битовая глубина : 16 бит
Метод сжатия : С потерями
Размер потока : 60,2 Мбайт (10%)
Выравнивание : Разделение по промежуткам
Продолжительность промежутка : 40 мс. (1,00 видеокадр)
Время предзагрузки промежутка : 500 мс.


Последний раз редактировалось: mihis (2015-12-03 16:42), всего редактировалось 3 раз(а)
[Профиль]  [ЛС] 

mihis ®

Стаж: 2 года 1 месяц

Сообщений: 221

Создавать темы 30-Ноя-2015 17:21 (спустя 23 часа)

[Цитировать] 

добавлены 4-6 серии
[Профиль]  [ЛС] 

mihis ®

Стаж: 2 года 1 месяц

Сообщений: 221

Создавать темы 01-Дек-2015 18:45 (спустя 1 день 1 час)

[Цитировать] 

добавлены 7-9 серии
[Профиль]  [ЛС] 

mihis ®

Стаж: 2 года 1 месяц

Сообщений: 221

Создавать темы 02-Дек-2015 19:55 (спустя 1 день 1 час)

[Цитировать] 

добавлены 10-12 серии
[Профиль]  [ЛС] 

mihis ®

Стаж: 2 года 1 месяц

Сообщений: 221

Создавать темы 03-Дек-2015 16:42 (спустя 20 часов)

[Цитировать] 

добавлены 13-14 серии Финал
[Профиль]  [ЛС] 

Lance

Стаж: 8 лет 3 месяца

Сообщений: 50

Откуда: город-герой Севастополь

Создавать темы 09-Дек-2015 19:06 (спустя 6 дней)

[Цитировать] 

Браво ,Урсуляк
[Профиль]  [ЛС] 
Похожие темы
Форум Тема Автор Размер
HD Тихий Дон [01-14 из 14] (2015) HDTVRip 720p от MediaClub Олег_SevStar 21,78 GB
HD Тихий океан (Тихоокеанский фронт) / The Pacific (1-10 серии из 10) (Джереми Подесва, Тимоти Ван Паттен, Дэвид Наттер) [2010 г., Исторический, драма, военный, BDRip 720p] MVO,DVO mihis 21,83 GB
Наше кино Тихий омут (Егор Анашкин) [2010 г., Триллер, SATRip] Фунтик 1,46 GB
Показать сообщения:    
Ответить на тему

Текущее время: 03-Дек 01:20

Часовой пояс: UTC + 3



Вы не можете начинать темы
Вы не можете отвечать на сообщения
Вы не можете редактировать свои сообщения
Вы не можете удалять свои сообщения
Вы не можете голосовать в опросах
Вы не можете прикреплять файлы к сообщениям
Вы не можете скачивать файлы