Воин (2015) WEB-DLRip-AVC от New-Team | iTunes

Ответить на тему
Статистика раздачи [Обновить пиров]
Скачал: [ 13 ]
 
   
 
 
Автор
Сообщение

Олег_SevStar ®

Стаж: 7 лет 8 месяцев

Сообщений: 2425

Откуда: из Союза...

Создавать темы 04-Дек-2015 12:26

[Цитировать] 

Страна: Россия
Производство: Art Pictures Studio
Жанр: драма, спорт
Год выпуска: 2015
Продолжительность: 01:27:06
Перевод: Не требуется
Cубтитры: нет
Оригинальная аудиодорожка: русский
Режиссер: Алексей Андрианов
В ролях:
Владимир Яглыч, Сергей Бондарчук (мл.), Светлана Ходченкова, Фёдор Бондарчук, Александр Балуев, Александр Новин, Мария Андреева, Алексей Комашко...
Полный список актёров
Описание:
Роман Родин уходит из морской пехоты и возвращается в родной Калининград. Здесь у него отец и старший брат Вячеслав, но как будто никого: они не семья и давно не общаются. Отец, когда-то талантливый тренер по боксу, мечтавший сделать из сыновей чемпионов, завязал и теперь живет рыбалкой, терзаясь сожалениями. А Слава с женой выбиваются из сил, чтобы заработать на лечение дочки… Шанс все исправить появляется, когда объявляют о международном турнире по смешанным единоборствам с огромным призовым фондом. Оба брата решают участвовать, и Роман обращается за помощью к отцу.
Когда брат пойдет на брата, а сын – на отца, столкнувшись лицом к лицу на ринге, смогут ли они победить призраков прошлого?- -Источник: WEB-DL 1080p
Качество видео: WEB-DLRip-AVC
Формат видео: MKV
Видео: 1024x426 (2,40:1), 25 fps, H264 ~ 2204 kbps avg, 0.202 bit/pixel
Аудио: 48 kHz, Dolby Digital AC3 5.1, 384 kbps iTunes
Раздача от:

MediaInfo

Общее
Полное имя : Voin.2015.WEB-DLRip-AVC_[New-team]_by_AVP_Studio.mkv
Формат : Matroska
Версия формата : Version 4 / Version 2
Размер файла : 1,57 Гбайт
Продолжительность : 1 ч. 27 м.
Общий поток : 2588 Кбит/сек
Название фильма : Voin.2015.WEB-DLRip-AVC_[New-team]_by_AVP_Studio
Дата кодирования : UTC 2015-11-04 12:07:17
Программа кодирования : mkvmerge v8.4.0 ('A better way to fly') 64bit
Библиотека кодирования : libebml v1.3.1 + libmatroska v1.4.2
DURATION : 01:27:05.952000000
NUMBER_OF_FRAMES : 163311
NUMBER_OF_BYTES : 250845696
_STATISTICS_WRITING_APP : mkvmerge v8.4.0 ('A better way to fly') 64bit
_STATISTICS_WRITING_DATE_UTC : 2015-11-04 12:07:17
_STATISTICS_TAGS : BPS DURATION NUMBER_OF_FRAMES NUMBER_OF_BYTES
Видео
Идентификатор : 1
Формат : AVC
Формат/Информация : Advanced Video Codec
Профиль формата : [email protected]
Параметр CABAC формата : Да
Параметр ReFrames формата : 10 кадров
Идентификатор кодека : V_MPEG4/ISO/AVC
Продолжительность : 1 ч. 27 м.
Битрейт : 2204 Кбит/сек
Ширина : 1024 пикселя
Высота : 426 пикселей
Соотношение сторон : 2,40:1
Режим частоты кадров : Постоянный
Частота кадров : 25,000 кадров/сек
Цветовое пространство : YUV
Субдискретизация насыщенности : 4:2:0
Битовая глубина : 8 бит
Тип развёртки : Прогрессивная
Бит/(Пиксели*Кадры) : 0.202
Размер потока : 1,31 Гбайт (83%)
Заголовок : Исходник WEB-DL 1080p
Библиотека кодирования : x264 core 148 r2597 e86f3a1
Настройки программы : cabac=1 / ref=10 / deblock=1:-3:-2 / analyse=0x3:0x113 / me=umh / subme=10 / psy=1 / psy_rd=1.00:0.00 / mixed_ref=1 / me_range=32 / chroma_me=1 / trellis=2 / 8x8dct=1 / cqm=0 / deadzone=21,11 / fast_pskip=1 / chroma_qp_offset=-2 / threads=6 / lookahead_threads=1 / sliced_threads=0 / nr=0 / decimate=0 / interlaced=0 / bluray_compat=0 / constrained_intra=0 / bframes=8 / b_pyramid=2 / b_adapt=2 / b_bias=0 / direct=3 / weightb=1 / open_gop=0 / weightp=2 / keyint=250 / keyint_min=25 / scenecut=40 / intra_refresh=0 / rc_lookahead=40 / rc=2pass / mbtree=1 / bitrate=2204 / ratetol=1.0 / qcomp=0.60 / qpmin=0 / qpmax=69 / qpstep=4 / cplxblur=20.0 / qblur=0.5 / ip_ratio=1.40 / aq=1:1.00
Язык : Russian
Default : Да
Forced : Нет
Аудио
Идентификатор : 2
Формат : AC-3
Формат/Информация : Audio Coding 3
Расширение режима : CM (complete main)
Параметр Endianness формата : Big
Идентификатор кодека : A_AC3
Продолжительность : 1 ч. 27 м.
Вид битрейта : Постоянный
Битрейт : 384 Кбит/сек
Каналы : 6 каналов
Расположение каналов : Front: L C R, Side: L R, LFE
Частота : 48,0 КГц
Метод сжатия : С потерями
Размер потока : 239 Мбайт (15%)
Заголовок : Dolby Digital 5,1 384 kbps
Язык : Russian
Default : Да
Forced : Нет

Скриншоты

[Профиль]  [ЛС] 

Clieft

Стаж: 8 лет 3 месяца

Сообщений: 1639

Откуда: руки растут! Репутация: порочная!

Создавать темы 05-Дек-2015 13:12 (спустя 1 день)

[Цитировать] 

Фильм - ГОВНО!
[Профиль]  [ЛС] 
Похожие темы
Форум Тема Автор Размер
Наше кино Воин (2015) WEB-DLRip ЗвЕрЁк 1,37 GB
Показать сообщения:    
Ответить на тему

Текущее время: 07-Дек 11:32

Часовой пояс: UTC + 3



Вы не можете начинать темы
Вы не можете отвечать на сообщения
Вы не можете редактировать свои сообщения
Вы не можете удалять свои сообщения
Вы не можете голосовать в опросах
Вы не можете прикреплять файлы к сообщениям
Вы не можете скачивать файлы