Битва за Севастополь (Василий Беляев) [1944, Документальный, война, история, кинохроника, DVDRip]

Ответить на тему
Статистика раздачи [Обновить пиров]
Буду качать: [ 1 ]
Скачал: [ 7 ]
 
   
 
 
Автор
Сообщение

mihis ®

Стаж: 2 года 1 месяц

Сообщений: 221

Создавать темы 10-Дек-2015 21:34

[Цитировать] 

Битва за Севастополь
Год выпуска: 1944
Страна: СССР, Центральная Ордена Красного Знамени студия д
Жанр: Документальный, война, история, кинохроника
Продолжительность: 00:42:57
Перевод: Не требуется
Режиссер: Василий Беляев
Описание: Документальный фильм о героическом освобождении Красной Армией от немецко-фашистских захватчиков Крыма и Севастополя в 1944 году. Масштабные съёмки производили 19 советских кинооператоров, под руководством режиссёра и оператора, лауреата Сталинской премии В. Н. Беляева. Показаны документальные кадры военных действий с места боёв на море, в воздухе и на суше. Враг был разбит, но Победа далась нелегко…
Качество: DVDRip
Формат: AVI
Видео: 640x480 (1.33:1), 23.976 fps, XviD build 73 ~1499 kbps avg, 0.20 bit/pixel
Аудио: 48 kHz, AC3 Dolby Digital, 2/0 (L,R) ch, ~192.00 kbps avg

MediaInfo

Битва.за.Севастополь.1944.XviD.DVDRip.alf62.aviФормат : AVIФормат/Информация : Audio Video InterleaveРазмер файла : 523 МбайтПродолжительность : 42 м.Общий поток : 1701 Кбит/секПрограмма кодирования : VirtualDubMod 1.5.10.3 | www.virtualdub-fr.org || (build 2550/release)Библиотека кодирования : VirtualDubMod build 2550/release
ВидеоИдентификатор : 0Формат : MPEG-4 VisualПрофиль формата : Advanced [email protected] BVOP формата : 2Параметр QPel формата : НетПараметр GMC формата : Без точки переходаПараметр матрицы формата : Default (MPEG)Идентификатор кодека : XVIDИдентификатор кодека/Подсказка : XviDПродолжительность : 42 м.Битрейт : 1500 Кбит/секШирина : 640 пикселейВысота : 480 пикселейСоотношение сторон : 4:3Частота кадров : 23,976 кадра/секЦветовое пространство : YUVСубдискретизация насыщенности : 4:2:0Битовая глубина : 8 битТип развёртки : ПрогрессивнаяМетод сжатия : С потерямиБит/(Пиксели*Кадры) : 0.204Размер потока : 461 Мбайт (88%)Библиотека кодирования : XviD 73
АудиоИдентификатор : 1Формат : AC-3Формат/Информация : Audio Coding 3Расширение режима : CM (complete main)Параметр Endianness формата : BigИдентификатор кодека : 2000Продолжительность : 42 м.Вид битрейта : ПостоянныйБитрейт : 192 Кбит/секКаналы : 2 каналаРасположение каналов : Front: L RЧастота : 48,0 КГцБитовая глубина : 16 битМетод сжатия : С потерямиРазмер потока : 59,0 Мбайт (11%)Выравнивание : Разделение по промежуткамПродолжительность промежутка : 42 мс. (1,00 видеокадр)Время предзагрузки промежутка : 500 мс.
[Профиль]  [ЛС] 
Похожие темы
Форум Тема Автор Размер
Отечественные сериалы Бессмертник. Битва за любовь / Сезон: 1 / Серии: 1-24 из 24 (Дмитрий Гольдман) [2015, Мелодрама, SATRip] Олег_SevStar 12,19 GB
Отечественные сериалы Битва за Севастополь (1-4 серия из 4)(Сергей Мокрицкий) [2015 г., Военный, боевик, мелодрама,WEBRip (720p)] Serega624 5,99 GB
DVD Битва за Севастополь (Сергей Мокрицкий) [2015г., Драма, военный, DVD9] mihis 6,8 GB
Наше кино Битва за Севастополь (Сергей Мокрицкий) [2015г., Драма, военный, DVDRip] mihis 2,05 GB
Документальные Битва за Украину (Андрей Кончаловский) [2013 г., документальный, VHSRip] Фунтик 1,37 GB
Документальные Битва за Черное море [2010 г., документальный, SATRip] Зоя 282 MB
Аудиокниги Бобл Алексей - "Последняя битва"(Технотьма) [Дамир Мударисов , 2013] Oldket 951 MB
Аудиокниги Мальцев Сергей - "Невидимая битва. Сокрытая история цивилизации" [Михаил Степанцов, 2007] Oldket 1,64 GB
Показать сообщения:    
Ответить на тему

Текущее время: 05-Дек 05:23

Часовой пояс: UTC + 3



Вы не можете начинать темы
Вы не можете отвечать на сообщения
Вы не можете редактировать свои сообщения
Вы не можете удалять свои сообщения
Вы не можете голосовать в опросах
Вы не можете прикреплять файлы к сообщениям
Вы не можете скачивать файлы