Выживший / The Revenant (Алехандро Гонсалес Иньярриту) [2015 г., Триллер, драма, приключения, вестерн, DVDScr] DVO

Ответить на тему
Статистика раздачи [Обновить пиров]
Буду качать: [ 12 ]
Скачал: [ 15 ]
 
   
 
 
Автор
Сообщение

mihis ®

Стаж: 2 года 1 месяц

Сообщений: 221

Создавать темы 21-Дек-2015 23:25

[Цитировать] 

Выживший / The Revenant
Год выпуска: 2015
Страна: США, Anonymous Content, Appian Way, New Regency Pictures, RatPac Entertainment, Soho VFX
Жанр: Триллер, драма, приключения, вестерн
Продолжительность: 02:36:21
Перевод: Любительский (двухголосый, закадровый) Parovoz Production
Субтитры: нет
Режиссер: Алехандро Гонсалес Иньярриту
В ролях: Леонардо ДиКаприо, Том Харди, Донал Глисон, Уилл Поултер, Пол Андерсон, Лукас Хаас, Брэд Картер, Кристоффер Йонер, Брендан Флетчер
Описание: Охотник Хью Гласс серьезно ранен на неизведанных просторах американского Дикого Запада. Товарищ Хью по отряду покорителей новых земель Джон Фицжеральд предательски оставляет его умирать в одиночестве. Теперь у Гласса осталось только одно оружие — его сила воли. Он готов бросить вызов первобытной природе, суровой зиме и враждебным племенам индейцев, только чтобы выжить и отомстить Фицжеральду.

Качество: DVDScr
Формат: AVI
Видео кодек: XviD
Аудио кодек: AC3
Видео: 720x304 (2.37:1), 23.976 fps, XviD build 50 ~1860 kbps avg, 0.35 bit/pixel
Аудио: 48 kHz, AC3 Dolby Digital, 2/0 (L,R) ch, ~128.00 kbps avg DVO
Внимание! Присутствуют голосовые и текстовые вставки рекламы казино!
Сэмпл

MediaInfo

Общее
Полное имя : G:\Video\Выживший.2015.L2.DVDScr.2.18GB.avi
Формат : AVI
Формат/Информация : Audio Video Interleave
Профиль формата : OpenDML
Размер файла : 2,18 Гбайт
Продолжительность : 2 ч. 36 м.
Общий поток : 1995 Кбит/сек
Программа кодирования : VirtualDubMod 1.5.10.3 | www.virtualdub-fr.org || (build 2550/release)
Библиотека кодирования : VirtualDubMod build 2550/release
Видео
Идентификатор : 0
Формат : MPEG-4 Visual
Профиль формата : Advanced [email protected]
Параметр BVOP формата : 2
Параметр QPel формата : Нет
Параметр GMC формата : Без точки перехода
Параметр матрицы формата : Default (MPEG)
Идентификатор кодека : XVID
Идентификатор кодека/Подсказка : XviD
Продолжительность : 2 ч. 36 м.
Битрейт : 1855 Кбит/сек
Ширина : 720 пикселей
Высота : 304 пикселя
Соотношение сторон : 2,35:1
Частота кадров : 23,976 кадра/сек
Цветовое пространство : YUV
Субдискретизация насыщенности : 4:2:0
Битовая глубина : 8 бит
Тип развёртки : Прогрессивная
Метод сжатия : С потерями
Бит/(Пиксели*Кадры) : 0.354
Размер потока : 2,03 Гбайт (93%)
Библиотека кодирования : XviD 1.2.1 (UTC 2008-12-04)
Аудио
Идентификатор : 1
Формат : AC-3
Формат/Информация : Audio Coding 3
Расширение режима : CM (complete main)
Параметр Endianness формата : Big
Идентификатор кодека : 2000
Продолжительность : 2 ч. 36 м.
Вид битрейта : Постоянный
Битрейт : 128 Кбит/сек
Каналы : 2 канала
Расположение каналов : Front: L R
Частота : 48,0 КГц
Битовая глубина : 16 бит
Метод сжатия : С потерями
Размер потока : 143 Мбайт (6%)
Выравнивание : Разделение по промежуткам
Продолжительность промежутка : 42 мс. (1,00 видеокадр)
Время предзагрузки промежутка : 500 мс.
[Профиль]  [ЛС] 

Saimon

Стаж: 8 лет 7 месяцев

Сообщений: 57

Откуда: Arroyo

Создавать темы 22-Дек-2015 05:43 (спустя 6 часов)

[Цитировать] 

Очень хорошо. Очень большое спасибо.
[Профиль]  [ЛС] 

МСМ

Стаж: 5 лет 9 месяцев

Сообщений: 43

Создавать темы 25-Дек-2015 12:48 (спустя 3 дня)

[Цитировать] 

Просто отлично )
[Профиль]  [ЛС] 

Voland

Стаж: 8 лет 7 месяцев

Сообщений: 6

Создавать темы 26-Дек-2015 20:25 (спустя 1 день 7 часов)

[Цитировать] 

Ну сцена с медведем просто шедевр.
[Профиль]  [ЛС] 

mixA

Стаж: 8 лет 7 месяцев

Сообщений: 233

Создавать темы 26-Дек-2015 23:19 (спустя 2 часа 53 минуты)

[Цитировать] 

725469Ну сцена с медведем просто шедевр.
Ни один Дикаприо не пострадал Image020
[Профиль]  [ЛС] 

KRAKEN

Стаж: 7 лет 10 месяцев

Сообщений: 7

Откуда: ...из глубины...

Создавать темы 07-Янв-2016 10:30 (спустя 11 дней)

[Цитировать] 

С 2ч.7мин. до 2ч.11мин. нет озвучки...зато есть реклама))
[Профиль]  [ЛС] 

fomich68

Стаж: 1 год 6 месяцев

Сообщений: 2

Создавать темы 08-Янв-2016 00:05 (спустя 13 часов)

[Цитировать] 

По мне фильм не очень.
[Профиль]  [ЛС] 

hardius

Стаж: 6 лет 2 месяца

Сообщений: 528

Создавать темы 15-Янв-2016 02:15 (спустя 7 дней)

[Цитировать] 

Хоть убейте не понимаю почему у фильма такой рейтинг =\
Я люблю фильмы такого плана, но этот сделай через чур уныло :( Несколько раз пытался его посмотреть (и то потому что чуть ли не каждый день слышал это название), в итоге посмотрел с перемотками, вообще не зацепил, обидно даже.
[Профиль]  [ЛС] 

писестрат

Стаж: 7 лет 7 месяцев

Сообщений: 1

Создавать темы 16-Янв-2016 13:47 (спустя 1 день 11 часов)

[Цитировать] 

редкостное дерьмище для слабоумных амереканских малолеток! фильм о том как озлобленные ублюдки выпиливают друг друга. зачем такое дерьмо снимать. 8 баллов на кинопоиске!?;№:%№: люди становятся все тупее и тупее.
[Профиль]  [ЛС] 
Похожие темы
Форум Тема Автор Размер
Зарубежные сериалы За пределами (Выжившая, Существующая) / Extant (2 сезон: 1-13 серия из 13) (Пэрис Barklay) [2015, Фантастика, триллер, драма, WEB-DL (720p)][Lostfilm] Serega624 16,06 GB
Аудиокниги Круз Андрей - "Выживатель" Oldket 620 MB
Наше кино Мафия: Игра на выживание (2015) WEB-DLRip | iTunes hardius 1,45 GB
Наше кино Мафия: Игра на выживание (Сарик Андреасян) [2015 фантастика, боевик BDRip] Лицензия mihis 1,46 GB
Аудиокниги Медведев Антон - "2012. Формула выживания" [Евгений Соколов, 2013] Oldket 806 MB
Показать сообщения:    
Ответить на тему

Текущее время: 03-Дек 01:20

Часовой пояс: UTC + 3



Вы не можете начинать темы
Вы не можете отвечать на сообщения
Вы не можете редактировать свои сообщения
Вы не можете удалять свои сообщения
Вы не можете голосовать в опросах
Вы не можете прикреплять файлы к сообщениям
Вы не можете скачивать файлы