Омерзительная восьмерка / The Hateful Eight (Квентин Тарантино) [2015 г., Вестерн, DVDScr] DVO

Ответить на тему
Статистика раздачи [Обновить пиров]
Буду качать: [ 6 ]
Скачал: [ 6 ]
 
   
 
 
Автор
Сообщение

mihis ®

Стаж: 2 года 1 месяц

Сообщений: 221

Создавать темы 23-Дек-2015 11:08

[Цитировать] 

Омерзительная восьмерка / The Hateful Eight«Без хорошей причины сюда не лезут» Год выпуска: 2015
Страна: США, The Weinstein Company LLC
Жанр: Вестерн
Продолжительность: 02:47:49
Перевод: Любительский (двухголосый, закадровый) Parovoz Production
Субтитры: нет
Режиссер: Квентин Тарантино
В ролях: Курт Расселл, Сэмюэл Л. Джексон, Тим Рот, Майкл Мэдсен, Дженнифер Джейсон Ли, Ченнинг Татум, Уолтон Гоггинс, Зои Белл, Брюс Дерн, Демиан Бишир
Описание: США после Гражданской войны. Легендарный охотник за головами Джон Рут по кличке Вешатель конвоирует заключенную. По пути к ним прибивается еще один охотник. Снежная буря вынуждает всех троих искать укрытие в лавке на отшибе, где уже расположилась весьма пестрая компания: генерал, шериф, мексиканец, француз и ковбой… И один из них — не тот, за кого себя выдает.

Качество: DVDScr
Формат: AVI
Видео кодек: XviD
Аудио кодек: AC3
Видео: 720x256 (2.81:1), 29.970 fps, XviD build 50 ~1935 kbps avg, 0.35 bit/pixel
Аудио: 48 kHz, AC3 Dolby Digital, 2/0 (L,R) ch, ~384.00 kbps avg DVO
Внимание! Присутствуют голосовые и текстовые вставки рекламы казино!
Сэмпл

MediaInfo

Общее
Полное имя : G:\Video\0mEr3iTe1nAya.V0sMerKo.2015.L2.DVDScr.2.73GB.avi
Формат : AVI
Формат/Информация : Audio Video Interleave
Профиль формата : OpenDML
Размер файла : 2,73 Гбайт
Продолжительность : 2 ч. 48 м.
Общий поток : 2328 Кбит/сек
Программа кодирования : VirtualDubMod 1.5.10.3 | www.virtualdub-fr.org || (build 2550/release)
Библиотека кодирования : VirtualDubMod build 2550/release
Видео
Идентификатор : 0
Формат : MPEG-4 Visual
Профиль формата : Advanced [email protected]
Параметр BVOP формата : 2
Параметр QPel формата : Нет
Параметр GMC формата : Без точки перехода
Параметр матрицы формата : Default (MPEG)
Идентификатор кодека : XVID
Идентификатор кодека/Подсказка : XviD
Продолжительность : 2 ч. 48 м.
Битрейт : 1931 Кбит/сек
Ширина : 720 пикселей
Высота : 256 пикселей
Соотношение сторон : 2,813
Частота кадров : 29,970 кадров/сек
Цветовое пространство : YUV
Субдискретизация насыщенности : 4:2:0
Битовая глубина : 8 бит
Тип развёртки : Прогрессивная
Метод сжатия : С потерями
Бит/(Пиксели*Кадры) : 0.350
Размер потока : 2,27 Гбайт (83%)
Библиотека кодирования : XviD 1.2.1 (UTC 2008-12-04)
Аудио
Идентификатор : 1
Формат : AC-3
Формат/Информация : Audio Coding 3
Расширение режима : CM (complete main)
Параметр Endianness формата : Big
Идентификатор кодека : 2000
Продолжительность : 2 ч. 48 м.
Вид битрейта : Постоянный
Битрейт : 384 Кбит/сек
Каналы : 2 канала
Расположение каналов : Front: L R
Частота : 48,0 КГц
Битовая глубина : 16 бит
Метод сжатия : С потерями
Размер потока : 462 Мбайт (16%)
Выравнивание : Разделение по промежуткам
Продолжительность промежутка : 33 мс. (1,00 видеокадр)
Время предзагрузки промежутка : 500 мс.
[Профиль]  [ЛС] 

Saimon

Стаж: 8 лет 7 месяцев

Сообщений: 57

Откуда: Arroyo

Создавать темы 24-Дек-2015 20:07 (спустя 1 день 8 часов)

[Цитировать] 

!!!!!!!!!!!!!
[Профиль]  [ЛС] 

sotona666

Стаж: 6 лет 10 месяцев

Сообщений: 51

Создавать темы 29-Дек-2015 15:11 (спустя 4 дня)

[Цитировать] 

поздно закрыли)))))
[Профиль]  [ЛС] 
Показать сообщения:    
Ответить на тему

Текущее время: 04-Дек 00:45

Часовой пояс: UTC + 3



Вы не можете начинать темы
Вы не можете отвечать на сообщения
Вы не можете редактировать свои сообщения
Вы не можете удалять свои сообщения
Вы не можете голосовать в опросах
Вы не можете прикреплять файлы к сообщениям
Вы не можете скачивать файлы