Переправа 2 / The Crossing 2 (Джон Ву) [2015 г., Драма, история, BDRip 720p] Dub

Ответить на тему
Статистика раздачи [Обновить пиров]
Скачал: [ 2 ]
 
   
 
 
Автор
Сообщение

mihis ®

Стаж: 2 года 1 месяц

Сообщений: 221

Создавать темы 24-Дек-2015 01:13

[Цитировать] 

Переправа 2 / The Crossing 2«Самое сложное время, чтобы любить»Год выпуска: 2015
Страна: Китай, Япония, Корея Южная, США
Жанр: Драма, история
Продолжительность: 02:05:48
Перевод:
Профессиональный (полное, дублирование) Лицензия
Оригинал
Субтитры: Английские, китайские
Режиссер: Джон Ву
В ролях: Такеши Канеширо, Цзыи Чжан, Хе Гё Сон, Сяо Мин Хуан, Тун Давэй, Масами Нагасава, Шан Конг, Джек Као, Хитоми Куроки, Боуи Лам, Вэй Ли, Хайлу Цинь
Описание: Герои фильма уже поднялись на борт злополучного корабля «Тайпин». Как и остальные пассажиры лайнера, они оказались на краю смерти. Всё смешалось в бурном потоке волн: радость и печаль, любовь и ненависть, жизнь и смерть. Кто сможет спастись и вырваться из круговорота трагических событий? А кто навсегда останется погребённым в холодных водах Тайваньского пролива?

Качество: BDRip 720p
Формат: MKV
Видео кодек: AVC
Аудио кодек: AC3, DTS
Видео: AVC, 1280x536 (2.35:1), 24.000 fps, 5 500 Kbps (0.334 bit/pixel)
Аудио #1: AC3, 48.0 KHz, 6 ch, 384 Kbps, CBR Dub
Аудио #2: DTS, 48.0 KHz, 6 ch, 1510 Kbps, CBR Chi

MediaInfo

x264 [info]: frame I:1385 Avg QP:14.54 size:116675
x264 [info]: frame P:45159 Avg QP:16.89 size: 50873
x264 [info]: frame B:134606 Avg QP:18.72 size: 20202
x264 [info]: consecutive B-frames: 3.1% 5.0% 9.7% 33.2% 14.3% 30.1% 4.6%
Format : Matroska
Format version : Version 4 / Version 2
File size : 6.49 GiB
Duration : 2h 5mn
Overall bit rate : 7 384 Kbps
Movie name : Переправа 2. (Tonik)
Encoded date : UTC 2015-12-23 17:00:10
Writing application : mkvmerge v7.1.0 ('Good Love') 64bit built on Jul 27 2014 13:06:55
Writing library : libebml v1.3.0 + libmatroska v1.4.1
DURATION : 02:02:00.343000000
NUMBER_OF_FRAMES : 1421
NUMBER_OF_BYTES : 32080
_STATISTICS_WRITING_APP : mkvmerge v7.1.0 ('Good Love') 64bit built on Jul 27 2014 13:06:55
_STATISTICS_WRITING_DATE_UTC : 2015-12-23 17:00:10
_STATISTICS_TAGS : BPS DURATION NUMBER_OF_FRAMES NUMBER_OF_BYTES
Video
ID : 1
Format : AVC
Format/Info : Advanced Video Codec
Format profile : [email protected]
Format settings, CABAC : Yes
Format settings, ReFrames : 12 frames
Codec ID : V_MPEG4/ISO/AVC
Duration : 2h 5mn
Bit rate : 5 500 Kbps
Width : 1 280 pixels
Height : 536 pixels
Display aspect ratio : 2.40:1
Frame rate mode : Constant
Frame rate : 24.000 fps
Color space : YUV
Chroma subsampling : 4:2:0
Bit depth : 8 bits
Scan type : Progressive
Bits/(Pixel*Frame) : 0.334
Stream size : 4.70 GiB (72%)
Writing library : x264 core 148 r2597 e86f3a1
Encoding settings : cabac=1 / ref=12 / deblock=1:0:0 / analyse=0x3:0x113 / me=umh / subme=10 / psy=1 / psy_rd=1.05:0.10 / mixed_ref=1 / me_range=32 / chroma_me=1 / trellis=2 / 8x8dct=1 / cqm=0 / deadzone=21,11 / fast_pskip=0 / chroma_qp_offset=-2 / threads=12 / lookahead_threads=1 / sliced_threads=0 / nr=0 / decimate=1 / interlaced=0 / bluray_compat=0 / constrained_intra=0 / bframes=6 / b_pyramid=2 / b_adapt=2 / b_bias=0 / direct=3 / weightb=1 / open_gop=0 / weightp=2 / keyint=250 / keyint_min=24 / scenecut=40 / intra_refresh=0 / rc=2pass / mbtree=0 / bitrate=5500 / ratetol=1.0 / qcomp=0.70 / qpmin=0 / qpmax=69 / qpstep=4 / cplxblur=20.0 / qblur=0.5 / ip_ratio=1.40 / pb_ratio=1.30 / aq=2:1.00
Language : Chinese
Default : Yes
Forced : No
Audio #1
ID : 2
Format : AC-3
Format/Info : Audio Coding 3
Mode extension : CM (complete main)
Format settings, Endianness : Big
Codec ID : A_AC3
Duration : 2h 5mn
Bit rate mode : Constant
Bit rate : 384 Kbps
Channel(s) : 6 channels
Channel positions : Front: L C R, Side: L R, LFE
Sampling rate : 48.0 KHz
Bit depth : 16 bits
Compression mode : Lossy
Stream size : 346 MiB (5%)
Title : iTunes
Language : Russian
Default : Yes
Forced : No
Audio #2
ID : 3
Format : DTS
Format/Info : Digital Theater Systems
Mode : 16
Format settings, Endianness : Big
Codec ID : A_DTS
Duration : 2h 5mn
Bit rate mode : Constant
Bit rate : 1 509 Kbps
Channel(s) : 6 channels
Channel positions : Front: L C R, Side: L R, LFE
Sampling rate : 48.0 KHz
Bit depth : 24 bits
Compression mode : Lossy
Stream size : 1.33 GiB (20%)
Language : Chinese
Default : No
Forced : No
Text #1
ID : 4
Format : UTF-8
Codec ID : S_TEXT/UTF8
Codec ID/Info : UTF-8 Plain Text
Language : English
Default : No
Forced : No
Text #2
ID : 5
Format : UTF-8
Codec ID : S_TEXT/UTF8
Codec ID/Info : UTF-8 Plain Text
Language : Chinese
Default : No
Forced : No
Menu
00:00:00.000 : en:
00:07:06.166 : en:
00:14:15.208 : en:
00:21:40.458 : en:
00:28:22.250 : en:
00:35:00.166 : en:
00:41:01.375 : en:
00:45:47.750 : en:
00:50:47.333 : en:
00:58:15.125 : en:
01:09:50.583 : en:
01:17:36.333 : en:
01:26:31.666 : en:
01:36:14.708 : en:
01:52:28.958 : en:
[Профиль]  [ЛС] 
Похожие темы
Форум Тема Автор Размер
Поп музыка AV - Перепевки, которые звучали на дискотеках (1часть) (2016) MP3 yura64 435 MB
Поп музыка AV - Перепевки,которые звучали на дискотеках (2 часть) (2016) MP3 yura64 447 MB
Поп музыка AV - Перепевки,которые звучали на дискотеках (3 часть) (2016) MP3 yura64 493 MB
HD Переправа / The Crossing (Джон Ву) [2014 г., Драма, история, BDRip 720p] Dub mihis 5,81 GB
Показать сообщения:    
Ответить на тему

Текущее время: 05-Дек 11:29

Часовой пояс: UTC + 3



Вы не можете начинать темы
Вы не можете отвечать на сообщения
Вы не можете редактировать свои сообщения
Вы не можете удалять свои сообщения
Вы не можете голосовать в опросах
Вы не можете прикреплять файлы к сообщениям
Вы не можете скачивать файлы