Пятый этаж без лифта / Серии: 1-2 из 2 (Сергей Краснов) [2015, Мелодрама, HDTVRip]

Ответить на тему
Статистика раздачи [Обновить пиров]
Скачал: [ 1 ]
 
   
 
 
Автор
Сообщение

Олег_SevStar ®

Стаж: 7 лет 8 месяцев

Сообщений: 2424

Откуда: из Союза...

Создавать темы 08-Янв-2016 21:00

[Цитировать] 

Пятый этаж без лифта Год выпуска: 2015
Производитель : Россия, Русское
Жанр: Мелодрама
Продолжительность: 90 мин.
Cубтитры: нет
Режиссер: Сергей Краснов
В ролях: Марина Коняшкина, Алексей Демидов, Иван Колесников, Любава Грешнова, Юлия Юрченко, Игорь Теплов, Галина Петрова, Татьяна Догилева, Игорь Скрипко, Виктор Цекало, Александр Хващинский, Виталия Корниенко
Описание: О фильме: Антон и Сима, в прошлом выпускники театрального, а ныне – успешные риэлторы. Они живут в гражданском браке, но юношескую любовь давно вытеснила привычка.Однажды в агентство обращается необычный клиент. Борис приехал из Лондона и намерен купить жильё в Москве – скромную квартиру в старой пятиэтажке. Выбор его не случаен: это место, где мужчина провёл своё счастливое детство. Как назло, владельцы наотрез отказываются продавать квартиру. Тогда предприимчивая Сима предлагает хитрый план, чтобы заставить хозяев съехать..
Релиз группа
Сэмпл
Качество: HDTVRip
Формат: AVI
Видео кодек: XviD
Аудио кодек: AC3
Видео: 720x400 (1.80:1), 25 fps, XviD build 73 ~1 964 Kbps avg, 0.22 bit/pixel
Аудио: 48 kHz, AC3 Dolby Digital, 2/0 (L,R) ch, ~192.00 kbps avg

MI

General
Complete name : Y:\раздачи\Пятый этаж без лифта.2015.HDTVRip.RG.Russkie.serialy.&.Files-x.Пятый этаж без лифта.2015.HDTVRip.RG.Russkie.serialy.&.Files-x.avi
Format : AVI
Format/Info : Audio Video Interleave
File size : 1.37 GiB
Duration : 1h 30mn
Overall bit rate : 2 166 Kbps
Writing application : VirtualDubMod 1.5.10.3 | www.virtualdub-fr.org || (build 2550/release)
Writing library : VirtualDubMod build 2550/release
Video
ID : 0
Format : MPEG-4 Visual
Format profile : Advanced [email protected]
Format settings, BVOP : 1
Format settings, QPel : No
Format settings, GMC : No warppoints
Format settings, Matrix : Custom
Codec ID : XVID
Codec ID/Hint : XviD
Duration : 1h 30mn
Bit rate : 1 964 Kbps
Width : 720 pixels
Height : 400 pixels
Display aspect ratio : 16:9
Frame rate : 25.000 fps
Color space : YUV
Chroma subsampling : 4:2:0
Bit depth : 8 bits
Scan type : Progressive
Compression mode : Lossy
Bits/(Pixel*Frame) : 0.273
Stream size : 1.24 GiB (91%)
Writing library : XviD 73
Audio
ID : 1
Format : AC-3
Format/Info : Audio Coding 3
Mode extension : CM (complete main)
Format settings, Endianness : Big
Codec ID : 2000
Duration : 1h 30mn
Bit rate mode : Constant
Bit rate : 192 Kbps
Channel(s) : 2 channels
Channel positions : Front: L R
Sampling rate : 48.0 KHz
Compression mode : Lossy
Stream size : 124 MiB (9%)
Alignment : Split accross interleaves
Interleave, duration : 40 ms (1.00 video frame)
Interleave, preload duration : 500 ms

Скриншоты

[Профиль]  [ЛС] 
Показать сообщения:    
Ответить на тему

Текущее время: 04-Дек 13:07

Часовой пояс: UTC + 3



Вы не можете начинать темы
Вы не можете отвечать на сообщения
Вы не можете редактировать свои сообщения
Вы не можете удалять свои сообщения
Вы не можете голосовать в опросах
Вы не можете прикреплять файлы к сообщениям
Вы не можете скачивать файлы