Профиль убийцы-2 / Сезон: 2 / Серии: 1-24 из 24 (Владимир Койфман) [2015, Боевик, криминал, WEBRip]

Ответить на тему
Статистика раздачи [Обновить пиров]
Качаю: [ 1 ]
Скачал: [ 11 ]
 
   
 
 
Автор
Сообщение

Олег_SevStar ®

Стаж: 7 лет 7 месяцев

Сообщений: 2424

Откуда: из Союза...

Создавать темы 10-Янв-2016 21:09

[Цитировать] 

Профиль убийцы-2 Год выпуска: 2015
Производство: Россия, ООО «Форвард-Фильм»
Жанр: Боевик, криминал
Продолжительность: 24 x ~ 00:47:00
Субтитры: нет
Режиссёр: Владимир Койфман
В ролях: Максим Щёголев, Вадим Андреев, Денис Матросов, Сергей Пиоро, Ольга Куликова, Ника Балина, Даша Русакова, Евгений Венедиктов, Александр Печенин, Максим Деричев, Валерий Смекалов, Мария Крашенинникова, Дмитрий Янышевский, Александр Числов, Анна Куркова, Андрей Касницкий, Дмитрий Паламарчук, Борис Полунин, Оксана Лунина, Олег Руденко-Травин, Юлия Скороход, Наталья Гусева (IV), Александр Лебедев (IX), Алексей Назаров (IV), Мария Русских, Евгений Смирнов-Иваницкий, Елена Мироненко, Олег Новиков (IV), Алексей Потапкин, Александр Курицын, Денис Шевченко, Андрей Пынзару, Владимир Селезнёв (II), Сергей Гурьев, Александр Городиский, Марина Барсукова, Александр Баранов (III), Илона Гайшун, Яна Аршавская
Описание: Во втором сезоне сериала «Профиль убийцы» зрители вновь встретятся с уже знакомыми им профайлерами – сотрудниками особого отдела, занимающегося раскрытием серийных убийств и изнасилований по всей России. Полковники Удальцов (Денис Матросов), Петров (Вадим Андреев), подполковник Круглов (Максим Щеголев) и капитан Субботина (Ольга Куликова) – ребята с железными нервами и острым умом. Они анализируют поведение маньяков, входя в их образ, проникая в их сознание.В новом сезоне отдел профайлеров значительно поредел – на пенсию отправили полковника Петрова. Но работы так много, что Петров постоянно помогает коллегам в качестве эксперта и научного консультанта. В разработку группы попадает маньяк провозгласивший себя Миссионером, он истребляет всех заблудших и сбившихся с правильного пути людей - бродяг, проституток. Этот контингент не побежит жаловаться в полицию, что их кто-то преследует. До них никому нет дела… Профайлерам удастся раскрыть преступление двадцатилетней давности, и даже спасти от неминуемого суда своего руководителя - генерала Губанова.Но герои сериала не только опытные сыщики с изощренным умом. Они такие же люди, как и все, и им тоже, подчас, не хватает простых человеческих радостей и положительных эмоций. Возможно, что им они нужны даже больше чем обычным людям. Удальцов встретит свою первую любовь, и пожар любви вспыхнет с новой силой. Круглов и Субботина неоднократно пытаются назначить день свадьбы, но каждый раз очередное дело отрывает их от счастливого дня. Это становится серьезной проблемой для пары. Но перспектив к облегчению работы, увы, никаких. Дела становиться все запутанней и страшней. Каждое новое дело - это новая жуткая трагедия и чем быстрее профайлеры составят «профиль убийцы», тем больше жизней им удастся уберечь.


Качество: WEBRip
Формат: AVI
Видео кодек: XviD
Аудио кодек: AC3
Видео: 704x400 (1.80:1), 25 fps, XviD build 73 ~1580 kbps avg, 0.22 bit/pixel
Аудио: 48 kHz, AC3 Dolby Digital, 2/0 (L,R) ch, ~192.00 kbps avg

MediaInfo

GeneralComplete name : D:\Vytas\Video\Profil.ubijcy.2.2015.WEBRip.Files-x.Profil.ubijcy.2.2015.WEBRip.Files-x.aviFormat : AVIFormat/Info : Audio Video InterleaveFile size : 600 MiBDuration : 47mn 6sOverall bit rate : 1 781 KbpsWriting application : VirtualDubMod 1.5.10.3 | www.virtualdub-fr.org || (build 2550/release)Writing library : VirtualDubMod build 2550/release
VideoID : 0Format : MPEG-4 VisualFormat profile : Advanced [email protected] settings, BVOP : 1Format settings, QPel : NoFormat settings, GMC : No warppointsFormat settings, Matrix : CustomCodec ID : XVIDCodec ID/Hint : XviDDuration : 47mn 6sBit rate : 1 580 KbpsWidth : 704 pixelsHeight : 400 pixelsDisplay aspect ratio : 16:9Frame rate : 25.000 fpsColor space : YUVChroma subsampling : 4:2:0Bit depth : 8 bitsScan type : ProgressiveCompression mode : LossyBits/(Pixel*Frame) : 0.224Stream size : 532 MiB (89%)Writing library : XviD 73
AudioID : 1Format : AC-3Format/Info : Audio Coding 3Mode extension : CM (complete main)Format settings, Endianness : BigCodec ID : 2000Duration : 47mn 6sBit rate mode : ConstantBit rate : 192 KbpsChannel(s) : 2 channelsChannel positions : Front: L RSampling rate : 48.0 KHzCompression mode : LossyStream size : 64.7 MiB (11%)Alignment : Split accross interleavesInterleave, duration : 40 ms (1.00 video frame)Interleave, preload duratio : 500 ms
Раздача группы:

Внимание ! Раздача ведётся путём добавления новых серий

Внимание! Раздача ведётся путём добавления новых серий; при каждом добавлении создётся новый торрент. Чтобы начать докачку новой серии, пользователям необходимо сделать следующее:
(1) остановить скачивание,
(2) удалить старый торрент у себя из клиента (старые серии удалять не надо),
(3) скачать новый торрент и запустить его у себя в клиенте вместо старого, при этом указать клиенту путь в старую папку куда и должно происходить скачивание новых серий.
Ваш клиент при этом должен произвести хеширование (проверку) старой папки (если не производит сам - помогите ему сделать это), и будет докачивать только те серии которых у вас ещё нет. Старые серии при этом не удаляются, а продолжают раздаваться!
Eсли вы уже удалили старые серии, то предотвратить повторную закачку старых серий можно, отжав галочку в соответсвующих местах при запуске нового торрента. По возможности, желательно не удалять старые серии как можно дольше чтобы релизёр не столько продолжал раздавать старые серии, а смог сконцентрироваться на новых.

Скриншоты

[Профиль]  [ЛС] 
Похожие темы
Форум Тема Автор Размер
Аудиокниги Ильин Владимир - "Профилактика" [Андрей Кравец, 2012] Oldket 885 MB
Отечественные сериалы Профиль убийцы (2 сезон: 1-24 серия из 24)[Боевик, криминал, 2016, HDTVRip] Олег_SevStar 13,09 GB
Отечественные сериалы Профиль убийцы / Сезон: 1 / Серии: 1-16 из 16 (Владимир Койфман) [2012, криминал, SATRip] Олег_SevStar 8,6 GB
Показать сообщения:    
Ответить на тему

Текущее время: 03-Дек 09:47

Часовой пояс: UTC + 3



Вы не можете начинать темы
Вы не можете отвечать на сообщения
Вы не можете редактировать свои сообщения
Вы не можете удалять свои сообщения
Вы не можете голосовать в опросах
Вы не можете прикреплять файлы к сообщениям
Вы не можете скачивать файлы