Последний охотник на ведьм / The Last Witch Hunter (Брек Эйснер) [2015 г., Фэнтези, боевик, приключения, WEB-DLRip] Dub

Ответить на тему
Статистика раздачи [Обновить пиров]
Скачал: [ 48 ]
 
   
 
 
Автор
Сообщение

mihis ®

Стаж: 2 года 1 месяц

Сообщений: 221

Создавать темы 12-Янв-2016 00:56

[Цитировать] 

Последний охотник на ведьм / The Last Witch Hunter««Вечно жить. Вечно убивать»»Год выпуска: 2015
Страна: США, Summit Entertainment, Lionsgate Company
Жанр: Фэнтези, боевик, приключения
Продолжительность: 01:46:26
Перевод: Профессиональный (полное дублирование) Лицензия iTunes
Cубтитры: нет
Режиссер: Брек Эйснер
В ролях: Вин Дизель, Роуз Лесли, Элайджа Вуд, Оулавюр Дарри Оулафссон, Рина Оуэн, Юли Энгельбрехт, Майкл Кейн, Джозеф Гилган, Исаак Де Банколе, Майкл Халсли, Слоун Кумбс, Лотте Вербеек, Доун Оливери, Инбар Лави, Армани Джексон, Эйми Карреро, Бекс Тейлор-Клаус, Дэвид Уэйлен, Джэк Эрди, Туссэн Рафаэль Абессоло
Описание: Современный мир скрывает множество секретов, но самым удивительным из них является то, что ведьмы до сих пор живут среди нас. Это злобные сверхъестественные существа, чья цель — наслать на мир смертоносную чуму. Армии охотников на ведьм сражались с ними на протяжении многих веков. В наши дни остался всего лишь один охотник на ведьм, Колдер, которому однажды удалось убить всемогущую королеву ведьм. Но Колдер еще не знает, что королева воскресла и жаждет отомстить своему убийце…

Качество: WEB-DLRip
Формат: AVI
Видео кодек: XviD
Аудио кодек: AC3
Видео: 720x400 (1.80:1), 24 fps, XviD build 50 ~1562 kbps avg, 0.23 bit/pixel
Аудио: 48 kHz, AC3 Dolby Digital, 3/2 (L,C,R,l,r) + LFE ch, ~384.00 kbps avg

MediaInfo

Общее
Полное имя : E:\Video\The.Last.Witch.Hunter.2015.D.WEB-DLRip.1.46GB.avi
Формат : AVI
Формат/Информация : Audio Video Interleave
Размер файла : 1,45 Гбайт
Продолжительность : 1 ч. 46 м.
Общий поток : 1956 Кбит/сек
Программа кодирования : VirtualDubMod 1.5.10.2 (build 2540/release)
Библиотека кодирования : VirtualDubMod build 2540/release
Видео
Идентификатор : 0
Формат : MPEG-4 Visual
Профиль формата : Advanced [email protected]
Параметр BVOP формата : 2
Параметр QPel формата : Нет
Параметр GMC формата : Без точки перехода
Параметр матрицы формата : Default (MPEG)
Идентификатор кодека : XVID
Идентификатор кодека/Подсказка : XviD
Продолжительность : 1 ч. 46 м.
Битрейт : 1563 Кбит/сек
Ширина : 720 пикселей
Высота : 400 пикселей
Соотношение сторон : 16:9
Частота кадров : 24,000 кадра/сек
Цветовое пространство : YUV
Субдискретизация насыщенности : 4:2:0
Битовая глубина : 8 бит
Тип развёртки : Прогрессивная
Метод сжатия : С потерями
Бит/(Пиксели*Кадры) : 0.226
Размер потока : 1,16 Гбайт (80%)
Библиотека кодирования : XviD 1.2.1 (UTC 2008-12-04)
Аудио
Идентификатор : 1
Формат : AC-3
Формат/Информация : Audio Coding 3
Расширение режима : CM (complete main)
Параметр Endianness формата : Big
Идентификатор кодека : 2000
Продолжительность : 1 ч. 46 м.
Вид битрейта : Постоянный
Битрейт : 384 Кбит/сек
Каналы : 6 каналов
Расположение каналов : Front: L C R, Side: L R, LFE
Частота : 48,0 КГц
Битовая глубина : 16 бит
Метод сжатия : С потерями
Размер потока : 292 Мбайт (20%)
Выравнивание : Разделение по промежуткам
Продолжительность промежутка : 42 мс. (1,00 видеокадр)
Время предзагрузки промежутка : 500 мс.
[Профиль]  [ЛС] 

МСМ

Стаж: 5 лет 9 месяцев

Сообщений: 43

Создавать темы 17-Янв-2016 17:36 (спустя 5 дней)

[Цитировать] 

Спасибо, качаем )
[Профиль]  [ЛС] 

Влад

Стаж: 8 лет 7 месяцев

Сообщений: 10

Создавать темы 21-Янв-2016 21:58 (спустя 4 дня)

[Цитировать] 

Не понравился фильм .. есть куча фильм про ведьм.. это наверно худший.
[Профиль]  [ЛС] 
Похожие темы
Форум Тема Автор Размер
Аудиокниги Cборник рассказов - "Последнее убежище"(Вселенная Метро 2033) [Сергей Кузнецов, 2012] Oldket 877 MB
Аудиокниги Бобл Алексей - "Последняя битва"(Технотьма) [Дамир Мударисов , 2013] Oldket 951 MB
Аудиокниги Бушков Александр - "Последняя пасха" Oldket 491 MB
Отечественные сериалы Выжить после / Сезон: 2 / Серии: 1-12 из 12 (Душан Глигоров, Александр Богуславский) [2016, Триллер, постапокалипсис, SATRip] dimdim 7,94 GB
Отечественные сериалы Выжить после / Сезон: 3 / Серии: 1-12 из 12 (Душан Глигоров, Александр Богуславский) [2016, Триллер, постапокалипсис, WEB-DLRip] dimdim 7,09 GB
Отечественные сериалы Истребители - 2. Последний бой (2 сезон: 1-12 серия из 12) ( Зиновий Ройзман) [2015, Драма, военный, WEB-DL (1080p)] Serega624 14,55 GB
Отечественные сериалы Истребители: Последний бой (2 сезон: 1-12 серии из 12) (Зиновий Ройзман) [2015 г., Военный фильм, драма, WEB-DLRip] mihis 7,62 GB
Зарубежное кино Кингсглейв: Последняя фантазия XV / Kingsglaive: Final Fantasy XV (2016) WEB-DL 1080p | iTunes Тоха™ 3,96 GB
Показать сообщения:    
Ответить на тему

Текущее время: 08-Дек 01:11

Часовой пояс: UTC + 3



Вы не можете начинать темы
Вы не можете отвечать на сообщения
Вы не можете редактировать свои сообщения
Вы не можете удалять свои сообщения
Вы не можете голосовать в опросах
Вы не можете прикреплять файлы к сообщениям
Вы не можете скачивать файлы