Затмение / Серии: 1-8 из 8 (Андрей Красавин) [2016, Мелодрама, SATRip]

Ответить на тему
Статистика раздачи [Обновить пиров]
Буду качать: [ 1 ]
Скачал: [ 3 ]
 
   
 
 
Автор
Сообщение

Олег_SevStar ®

Стаж: 7 лет 8 месяцев

Сообщений: 2425

Откуда: из Союза...

Создавать темы 12-Янв-2016 12:13

[Цитировать] 

Затмение
Год выпуска: 2016
Страна: Украина, Россия
Производство: Тесей Продакшн
Жанр: Мелодрама
Продолжительность: 00:46:00 серия
Субтитры:Украинские
Режиссёр: Андрей Красавин
В ролях: Ольга Сухарева, Мария Ахметзянова, Алексей Анищенко, Михаил Дорожкин, Светлана Тимофеева-Летуновская, Игорь Филиппов, Александр Бранкевич, Сергей Власов (IV), Руслан Чернецкий, Виталий Новиков (II), Олег Ткачёв, Оксана Барчевская, Виктор Васильев (II), Александр Павлов (IV), Сергей Ефремов (II)
Описание: До семи лет жизнь Марьяны была чередой ярких праздников, которые устраивал, возвращаясь из плаванья, её папа-моряк. Но однажды всё изменилось: папа перестал приезжать, навсегда оставшись в другой семье, а мама вышла замуж за нелюбимого мужчину, чтобы обеспечить безбедную жизнь себе и дочке. Марьяна сразу невзлюбила отчима и сводную сестру Таню. Она продолжала ждать родного отца и верить, что когда-нибудь праздник вернется в её жизнь. И он вернулся спустя много лет, когда Марьяна встретила и полюбила Диму, который так напоминал ей отца. Но, как и отец, Дима однажды не вернулся домой… Новое предательство окончательно подкосило Марьяну. Она могла стать верной женой и хорошей матерью, а стала безжалостной мстительницей, готовой даже на убийство.
Качество: SATRip
Формат: AVI
Видео кодек: XviD
Аудио кодек: MP3
Видео: 720x400, 25 fps, XviD, ~1500 kbps, 0.229 bit/pixel
Аудио: 48 kHz, MPEG Layer 3, 2 ch, 192 kbps

MI

Общее
Полное имя : U:\Сериалы (2015)\Затмение (2016)\Затмение.(01.seriya).2016.XviD.SATRip.by.simka.avi
Формат : AVI
Формат/Информация : Audio Video Interleave
Размер файла : 555 Мбайт
Продолжительность : 44 м.
Общий поток : 1750 Кбит/сек
Программа кодирования : VirtualDubModRus 1.5.10.2 (build 2542/release)
Библиотека кодирования : VirtualDubMod build 2542/release
Видео
Идентификатор : 0
Формат : MPEG-4 Visual
Профиль формата : Advanced [email protected]
Параметр BVOP формата : 1
Параметр QPel формата : Нет
Параметр GMC формата : Без точки перехода
Параметр матрицы формата : Default (MPEG)
Идентификатор кодека : XVID
Идентификатор кодека/Подсказка : XviD
Продолжительность : 44 м.
Битрейт : 1548 Кбит/сек
Ширина : 720 пикселей
Высота : 400 пикселей
Соотношение сторон : 16:9
Частота кадров : 25,000 кадров/сек
Цветовое пространство : YUV
Субдискретизация насыщенности : 4:2:0
Битовая глубина : 8 бит
Тип развёртки : Прогрессивная
Метод сжатия : С потерями
Бит/(Пиксели*Кадры) : 0.215
Размер потока : 491 Мбайт (88%)
Библиотека кодирования : XviD 1.2.1 (UTC 2008-12-04)
Аудио
Идентификатор : 1
Формат : MPEG Audio
Версия формата : Version 1
Профиль формата : Layer 3
Режим : Joint stereo
Расширение режима : MS Stereo
Идентификатор кодека : 55
Идентификатор кодека/Подсказка : MP3
Продолжительность : 44 м.
Вид битрейта : Постоянный
Битрейт : 192 Кбит/сек
Каналы : 2 канала
Частота : 48,0 КГц
Метод сжатия : С потерями
Размер потока : 60,9 Мбайт (11%)
Выравнивание : Соединение по промежуткам
Продолжительность промежутка : 40 мс. (1,00 видеокадр)
Время предзагрузки промежутка : 504 мс.
Библиотека кодирования : LAME3.99r
Настройки программы : -m j -V 4 -q 2 -lowpass 18.6 -b 192

Скриншоты

Внимание! Раздача ведётся путём добавления новых выпусков

При каждом добавлении создаётся новый торрент. Чтобы начать докачку нового выпуска, пользователям необходимо сделать следующее:
● остановить скачивание;
● удалить старый торрент у себя из клиента (старые выпуски удалять не надо);
● скачать новый торрент и запустить его у себя в клиенте вместо старого, при этом указать клиенту путь в старую папку куда и должно происходить скачивание новых выпусков;
● ваш клиент при запуске должен произвести хеширование (проверку) старой папки (если не производит сам - помогите ему сделать это), и будет докачивать только те выпуски, которых у вас ещё нет. Старые выпуски при этом не удаляются, а продолжают раздаваться!,
● Eсли вы уже удалили старые выпуски, то предотвратить повторную закачку старых выпусков можно, отжав галочку в соответсвующих местах при запуске нового торрента.


Последний раз редактировалось: Олег_SevStar (2016-01-16 14:01), всего редактировалось 3 раз(а)
[Профиль]  [ЛС] 

Олег_SevStar ®

Стаж: 7 лет 8 месяцев

Сообщений: 2425

Откуда: из Союза...

Создавать темы 13-Янв-2016 17:50 (спустя 1 день 5 часов)

[Цитировать] 

Добавил до 4 серии
[Профиль]  [ЛС] 

Олег_SevStar ®

Стаж: 7 лет 8 месяцев

Сообщений: 2425

Откуда: из Союза...

Создавать темы 14-Янв-2016 14:44 (спустя 20 часов)

[Цитировать] 

5-6 серии
[Профиль]  [ЛС] 

Олег_SevStar ®

Стаж: 7 лет 8 месяцев

Сообщений: 2425

Откуда: из Союза...

Создавать темы 16-Янв-2016 14:00 (спустя 1 день 23 часа)

[Цитировать] 

Финал!!!
[Профиль]  [ЛС] 
Похожие темы
Форум Тема Автор Размер
Программы и игры для Android Modern Combat 5: Затмение [1.0.1c] Trevor 933 MB
Показать сообщения:    
Ответить на тему

Текущее время: 06-Дек 13:11

Часовой пояс: UTC + 3



Вы не можете начинать темы
Вы не можете отвечать на сообщения
Вы не можете редактировать свои сообщения
Вы не можете удалять свои сообщения
Вы не можете голосовать в опросах
Вы не можете прикреплять файлы к сообщениям
Вы не можете скачивать файлы