Деревенский роман / Серии: 1-16 из 16 (Виталий Бабенко) [2015, Россия, Мелодрама, HDTVRip]

Ответить на тему
Статистика раздачи [Обновить пиров]
Скачал: [ 6 ]
 
   
 
 
Автор
Сообщение

Олег_SevStar ®

Стаж: 7 лет 8 месяцев

Сообщений: 2425

Откуда: из Союза...

Создавать темы 12-Янв-2016 12:20

[Цитировать] 

Деревенский роман Год выпуска: 2015
Производитель : Россия, "Топлайн фильм"
Жанр: Мелодрама
Продолжительность: 50 мин. серия
Cубтитры: нет
Режиссер: Виталий Бабенко
В ролях: Антон Макарский, Маруся Зыкова, Дмитрий Исаев, Юлия Такшина, Владимир Носик, Вячеслав Гришечкин, Андрей Леонов, Анна Андрусенко, Владимир Яворский, Юлия Жигалина, Юлиана Ромашина (Оррен), Мария Буравлева, Максим Лагашкин, Алла Подчуфарова, Екатерина Вежновец, Алиса Мосина
Описание: Света Бардина (Маруся Зыкова) – красивая, уверенная в себе и амбициозная девушка. Она работает в крупном агрохолдинге, знает все о производстве и переработке молока, правда живых коров видела только на картинках.Света рассчитывает получить повышение и занять должность директора департамента по работе с регионами. Но внезапно узнает, что ее коллега и жених Вадим Шевельков (Дмитрий Исаев) тоже претендует на это место. Директор холдинга принимает неожиданное решение. Он объявляет Бардиной и Шевелькову, что должность достанется тому, кто сможет наладить работу агрокомплекса в Васильково, где недавно при таинственных обстоятельствах пропал менеджер компании. Света вынуждена согласиться – ей необходимо повышение, ведь она должна помогать матери и сестре с двумя детьми, которых она недавно перевезла из родного города в Москву. Так Света и Вадим оказываются в самом сердце российской глубинки. В Васильково упрямая и решительная, но еще неопытная Бардина попадает в непривычную обстановку, где царят свои законы. Деревенские встречают ее неприветливо, менять сложившиеся устои никто не хочет. К тому же Свете предстоит обойти Вадима, который ведет двойную игру и собирается присвоить себе авторство ее идей. Случай сводит Свету со странным ковбоем - работником местной фермы Арсением (Антон Макарский). Он не похож на других деревенских – Арсений хорош собой и совсем не пьет. Света решает нанять его на работу. Но может ли амбициозная горожанка влюбиться в сельского жителя, без денег и перспектив? Света не знает, что на самом деле встретила «принца», который под маской пастуха скрывает свою настоящую личность и прошлое... Арсений же подозревает, что Света совсем не та, за кото себя выдает. Он думает, что Бардину специально прислали, чтобы следить за ним…
Релиз группа
Сэмпл
Качество: HDTVRip
Формат: AVI
Видео кодек: XviD
Аудио кодек: AC3
Видео: 720x400 (1.80:1), 25 fps, XviD build 73 ~1548 kbps avg, 0.22 bit/pixel
Аудио: 48 kHz, AC3 Dolby Digital, 2/0 (L,R) ch, ~192.00 kbps avg

MI

General
Complete name : Y:\раздачи\Деревенский роман..2015.HDTVRip.RG.Russkie.serialy.&.Files-x.Деревенский роман..2015.HDTVRip.RG.Russkie.serialy.&.Files-x.avi
Format : AVI
Format/Info : Audio Video Interleave
File size : 549 MiB
Duration : 43mn 49s
Overall bit rate : 1 752 Kbps
Writing application : VirtualDubMod 1.5.10.3 | www.virtualdub-fr.org || (build 2550/release)
Writing library : VirtualDubMod build 2550/release
Video
ID : 0
Format : MPEG-4 Visual
Format profile : Advanced [email protected]
Format settings, BVOP : 1
Format settings, QPel : No
Format settings, GMC : No warppoints
Format settings, Matrix : Custom
Codec ID : XVID
Codec ID/Hint : XviD
Duration : 43mn 49s
Bit rate : 1 550 Kbps
Width : 720 pixels
Height : 400 pixels
Display aspect ratio : 16:9
Frame rate : 25.000 fps
Color space : YUV
Chroma subsampling : 4:2:0
Bit depth : 8 bits
Scan type : Progressive
Compression mode : Lossy
Bits/(Pixel*Frame) : 0.215
Stream size : 486 MiB (88%)
Writing library : XviD 73
Audio
ID : 1
Format : AC-3
Format/Info : Audio Coding 3
Mode extension : CM (complete main)
Format settings, Endianness : Big
Codec ID : 2000
Duration : 43mn 49s
Bit rate mode : Constant
Bit rate : 192 Kbps
Channel(s) : 2 channels
Channel positions : Front: L R
Sampling rate : 48.0 KHz
Compression mode : Lossy
Stream size : 60.2 MiB (11%)
Alignment : Split accross interleaves
Interleave, duration : 40 ms (1.00 video frame)
Interleave, preload duration : 500 ms

Внимание! Раздача ведётся путём добавления новых серий!

Внимание! Раздача ведётся путём добавления новых серий
Внимание! Раздача ведётся путём добавления новых серий; при каждом добавлении создётся новый торрент.
Чтобы начать докачку новой серии, пользователям необходимо сделать следующее:
1) остановить скачивание
2) удалить старый торрент у себя из клиента (старые серии удалять не надо)
3) скачать новый торрент и запустить его у себя в клиенте вместо старого, при этом указать клиенту путь в старую папку куда и должно происходить скачивание новых серий.
Ваш клиент при этом должен произвести хеширование (проверку) старой папки (если не производит сам - помогите ему сделать это), и будет докачивать только те серии которых у вас ещё нет. Старые серии при этом не удаляются, а продолжают раздаваться!
Eсли вы уже удалили старые серии, то предотвратить повторную закачку старых серий можно, отжав галочку в соответствовавших местах при запуске нового торрента.

Скриншоты



Последний раз редактировалось: Олег_SevStar (2016-01-16 13:47), всего редактировалось 2 раз(а)
[Профиль]  [ЛС] 

Олег_SevStar ®

Стаж: 7 лет 8 месяцев

Сообщений: 2425

Откуда: из Союза...

Создавать темы 13-Янв-2016 17:54 (спустя 1 день 5 часов)

[Цитировать] 

добавил до 8 серии
[Профиль]  [ЛС] 

Олег_SevStar ®

Стаж: 7 лет 8 месяцев

Сообщений: 2425

Откуда: из Союза...

Создавать темы 14-Янв-2016 14:38 (спустя 20 часов)

[Цитировать] 

добавил до 12 серии
[Профиль]  [ЛС] 

Juna

Стаж: 7 лет 10 месяцев

Сообщений: 16

Создавать темы 15-Янв-2016 14:06 (спустя 23 часа)

[Цитировать] 

12 серия это повтор
[Профиль]  [ЛС] 

Олег_SevStar ®

Стаж: 7 лет 8 месяцев

Сообщений: 2425

Откуда: из Союза...

Создавать темы 16-Янв-2016 13:48 (спустя 23 часа)

[Цитировать] 

Финал!!!
[Профиль]  [ЛС] 

Олег_SevStar ®

Стаж: 7 лет 8 месяцев

Сообщений: 2425

Откуда: из Союза...

Создавать темы 16-Янв-2016 13:50 (спустя 1 минута)

[Цитировать] 

72558512 серия это повтор
исправлена 12 серия
[Профиль]  [ЛС] 
Похожие темы
Форум Тема Автор Размер
Отечественные сериалы Деревенщина [Серии: 1-4 из 4] (Владимир Устюгов) (2014, мелодрама, SATRip) anatolyi100 2,73 GB
Отечественные сериалы Поговори со мною о любви [Серии: 1-4 из 4] (Артем Насыбулин) [2013 г., деревенская мелодрама, SATRip] anatolyi100 2,26 GB
Показать сообщения:    
Ответить на тему

Текущее время: 08-Дек 01:11

Часовой пояс: UTC + 3



Вы не можете начинать темы
Вы не можете отвечать на сообщения
Вы не можете редактировать свои сообщения
Вы не можете удалять свои сообщения
Вы не можете голосовать в опросах
Вы не можете прикреплять файлы к сообщениям
Вы не можете скачивать файлы