Метеорит / Серии: 1-8 из 8 (Александр Даруга) [2015, Детектив, мистика, HDTV 1080i]

Ответить на тему
Статистика раздачи [Обновить пиров]
Нет
 
   
 
 
Автор
Сообщение

Олег_SevStar ®

Стаж: 7 лет 8 месяцев

Сообщений: 2425

Откуда: из Союза...

Создавать темы 19-Янв-2016 17:15

[Цитировать] 

Метеорит -Год выпуска: 2015
Производство: Россия, «Авиатор Продакшн» по заказу НТВ
Жанр: Детектив, мистика
Продолжительность: 00:45:00 серия
Субтитры: Нет-Режиссёр: Александр Даруга
В ролях: Константин Стрельников, Светлана Иванова, Максим Литовченко, Павел Кузьмин, Анна Миклош, Дмитрий Астрахан, Михаил Горевой, Алексей Тимошкин, Юрий Ваксман, Марат Гибадуллин, Анзор Камариддинов, Андрей Багиров, Даниил Филенко , Роман Колотухин, Евгений Мундум-Описание: Московский опер-розыскник Леонид Жаров (Константин Стрельников) приезжает в маленький городок Безреченск, чтобы по заданию руководства расследовать массовое исчезновение жителей города. Ведь за последний год в Безреченске бесследно исчезли двадцать пять человек, и с каждым днем количество пропавших растет. Местные жители связывают загадочные события с падением метеорита возле старых рудников. Сильнейший взрыв «тряхнул» весь город, и именно после него и началась вся эта чертовщина. Но Жаров не верит в чудеса, инопланетян и чертей. Он верит в логику и здравый смысл, поэтому общается с родственниками пропавших, пытаясь найти общие обстоятельства загадочных исчезновений. Однако никаких параллелей обнаружить не удается. Никаких свидетелей тоже нет. Расследование продвигается с большим трудом еще и от того, что местные стражи порядка весьма неохотно помогают Жарову, с самого начала встретив столичного гостя в штыки. Приезжий профессор уфологии (Дмитрий Астрахан), который изучает место падения метеорита, убежден, что здесь потерпел крушение инопланетный корабль, а жителей Безреченска забрали инопланетяне. Жаров пытается спорить с ученым, но тот на полном серьезе заявляет, что у него уже был контакт с этими инопланетянами… Жаров начинает сторониться сумасшедшего профессора. Масла в огонь подливает местная экстрасенс Алёна (Светлана Иванова), которую наняли для поисков родственники пропавших. Куда бы Жаров ни пошел, везде он натыкается на «ведьму» Алёну. У нее, как оказалось, тоже был контакт с пропавшими. Алёна считает, что они находятся где-то в лесу. И у Жарова тоже есть версия, что люди ушли из города по собственной воле. Кто станет следующей жертвой, к чему приведут поиски пропавших, кто на самом деле виновник исчезновений людей на месте падения метеорита и как сложится дальнейшая жизнь Леонида и Алёны?-Релиз: Rip by Nikolspup от MediaClub

Семпл-Качество: HDTV 1080i
Формат: TS
Видео кодек: AVC
Аудио кодек: MP2
Видео: MPEG-4 AVC, ~ 7500 Кбит/с, 1920x1080, 25 кадр/с, 0.132 Бит/(Пиксели*Кадры)
Аудио: MP2, 2 ch, 192 Кбит/с, 48,0 КГц

MI

Общее
Идентификатор : 1 (0x1)
Полное имя : F:\Фильмы торренты\Meteorit.2015.HDTV.(1080i).MediaClub\Meteorit.(01.seriya.iz.08).2015.HDTV.(1080i).MediaClub.ts
Формат : MPEG-TS
Размер файла : 2,35 Гбайт
Продолжительность : 45 м.
Режим общего битрейта : Переменный
Общий поток : 7414 Кбит/сек
Видео
Идентификатор : 901 (0x385)
Идентификатор меню : 1116 (0x45C)
Формат : AVC
Формат/Информация : Advanced Video Codec
Профиль формата : [email protected]
Параметр CABAC формата : Да
Параметр ReFrames формата : 2 кадра
Идентификатор кодека : 27
Продолжительность : 45 м.
Битрейт : 6854 Кбит/сек
Ширина : 1920 пикселей
Высота : 1080 пикселей
Соотношение сторон : 16:9
Частота кадров : 25,000 кадров/сек
Цветовое пространство : YUV
Субдискретизация насыщенности : 4:2:0
Битовая глубина : 8 бит
Тип развёртки : MBAFF
Бит/(Пиксели*Кадры) : 0.132
Размер потока : 2,18 Гбайт (92%)
Основные цвета : BT.709
Характеристики трансфера : BT.709
Коэффициенты матрицы : BT.709
Аудио
Идентификатор : 902 (0x386)
Идентификатор меню : 1116 (0x45C)
Формат : MPEG Audio
Версия формата : Version 1
Профиль формата : Layer 2
Идентификатор кодека : 3
Продолжительность : 45 м.
Вид битрейта : Постоянный
Битрейт : 192 Кбит/сек
Каналы : 2 канала
Частота : 48,0 КГц
Метод сжатия : С потерями
Задержка видео : -80 мс.
Размер потока : 62,4 Мбайт (3%)
Язык : Russian
[Профиль]  [ЛС] 
Похожие темы
Форум Тема Автор Размер
Отечественные сериалы Метеорит / Серии:01-08 из 08 (Александр Даруга) [2016г, Детектив, мистика SATRip] Олег_SevStar 4,9 GB
Показать сообщения:    
Ответить на тему

Текущее время: 09-Дек 12:39

Часовой пояс: UTC + 3



Вы не можете начинать темы
Вы не можете отвечать на сообщения
Вы не можете редактировать свои сообщения
Вы не можете удалять свои сообщения
Вы не можете голосовать в опросах
Вы не можете прикреплять файлы к сообщениям
Вы не можете скачивать файлы