Котовский (Александр Файнциммер) [1942, Исторический, биографический, TVRip]

Ответить на тему
Статистика раздачи [Обновить пиров]
Нет
 
   
 
 
Автор
Сообщение

novo4ek92 ®

Стаж: 10 месяцев 12 дней

Сообщений: 33

Создавать темы 22-Янв-2016 15:35

[Цитировать] 

Котовский
Жанр: Исторический, биографический
Год выпуска: 1942
Продолжительность: 01:07:36
Режиссёр: Александр Файнциммер
В ролях: Николай Мордвинов, Михаил Астангов, Василий Ванин, Николай Крючков, Вера Марецкая, Константин Сорокин, Георгий Георгиу, Григорий Шнигель
Описание: Фильм о подвигах героя Гражданской войны, легендарного комбрига Григория Ивановича Котовского. Шесть раз он бежал из тюрьмы, был приговорен к смертной казни и вновь бежал, чтобы стать одним из самых пламенных воинов революции. Его знаменитая конная бригада билась с врагом под Киевом и Белой Церковью, у Николаева и Одессы, и нигде не знала поражений.
Доп. информация: Григории Ивановиче Котовский (1881-1925), легендарный красный командир, герой Гражданской войны . С детства Котовский увлекался чтением авантюрных романов и захватывающих драм, эта страсть определила и драматургию его жизненного пути. Григорий Котовский, легендарный вождь красной конницы, жил так, что каждый его шаг был продуман и эффектно выстроен, как если бы на него ежесекундно смотрел зритель. Это был яркий артист, играющий свою роль прямо в жизни.
Качество видео: TVRip
Формат видео: AVI
Видео: 672x560 (1.73:1), 25 fps, DivX Codec 5.1 ~2300 kbps avg, 0.33 bit/pixel
Аудио: 48 kHz, MPEG Layer 3, 1 ch, ~64.00 kbps avg

MediaInfo

Общее
Полное имя : D:\Кино\kotovskij.avi
Формат : AVI
Формат/Информация : Audio Video Interleave
Размер файла : 1,08 Гбайт
Продолжительность : 1 ч. 7 м.
Общий поток : 2294 Кбит/сек
Библиотека кодирования : VirtualDub build 24442/release
Видео
Идентификатор : 0
Формат : MPEG-4 Visual
Параметр BVOP формата : 1
Параметр QPel формата : Нет
Параметр GMC формата : Без точки перехода
Параметр матрицы формата : Default (H.263)
Режим смешивания : Сжатый битовый поток
Идентификатор кодека : DX50
Идентификатор кодека/Подсказка : DivX 5
Продолжительность : 1 ч. 7 м.
Битрейт : 2172 Кбит/сек
Ширина : 672 пикселя
Высота : 560 пикселей
Соотношение сторон : 1,200
Частота кадров : 25,000 кадров/сек
Цветовое пространство : YUV
Субдискретизация насыщенности : 4:2:0
Битовая глубина : 8 бит
Тип развёртки : Прогрессивная
Метод сжатия : С потерями
Бит/(Пиксели*Кадры) : 0.231
Размер потока : 1,03 Гбайт (95%)
Библиотека кодирования : DivX 5.2.1 (WaffleDay) (UTC 2004-09-08)
Аудио
Идентификатор : 1
Формат : MPEG Audio
Версия формата : Version 1
Профиль формата : Layer 3
Режим : Joint stereo
Расширение режима : MS Stereo
Идентификатор кодека : 55
Идентификатор кодека/Подсказка : MP3
Продолжительность : 1 ч. 7 м.
Вид битрейта : Постоянный
Битрейт : 112 Кбит/сек
Каналы : 2 канала
Частота : 48,0 КГц
Метод сжатия : С потерями
Размер потока : 54,2 Мбайт (5%)
Выравнивание : Разделение по промежуткам
Продолжительность промежутка : 40 мс. (1,00 видеокадр)
Время предзагрузки промежутка : 500 мс.

Скриншоты

[Профиль]  [ЛС] 
Похожие темы
Форум Тема Автор Размер
Аудиокниги Пикуль Валентин - Исторические миниатюры. [Александр Клюквин, Алексей Борзунов, Валерия Лебедева, Александр Котов, Сергей Чонишвили, Александр Бордуков 2006,2011] Oldket 4,05 GB
Показать сообщения:    
Ответить на тему

Текущее время: 03-Дек 20:41

Часовой пояс: UTC + 3



Вы не можете начинать темы
Вы не можете отвечать на сообщения
Вы не можете редактировать свои сообщения
Вы не можете удалять свои сообщения
Вы не можете голосовать в опросах
Вы не можете прикреплять файлы к сообщениям
Вы не можете скачивать файлы