Паутина 9 / сезон: 9 / Серии: 1-24 из 24 (Сергей Краснов) [2015, детектив, HDTVRip]

Ответить на тему
Статистика раздачи [Обновить пиров]
Буду качать: [ 1 ]
Скачал: [ 6 ]
 
   
 
 
Автор
Сообщение

Олег_SevStar ®

Стаж: 7 лет 8 месяцев

Сообщений: 2426

Откуда: из Союза...

Создавать темы 23-Янв-2016 11:19

[Цитировать] 

Паутина 9 Год выпуска: 2015
Производство: Россия, Форвард-фильм
Жанр: детектив, криминальный фильм
Продолжительность:24x ~00:44:00
Субтитры: нет
Режиссер: Андрей Хрулев
В ролях: Олег Харитонов, Олег Филипчик, Юлия Селиванова, Ника Балина, Янина Когут, Анна Куркова, Александр Денисов (III), Андрей Муравьёв, Ангелина Притуманова, Александр Баринов, Александра Булычёва, Маргарита Иванова-Донская (IV), Валерий Новиков, Николай Зазуля, Наталья Дворецкая, Евгений Галушко, Анна Карышева
Описание: Паутина криминальных связей становится больше. С ней продолжает борьбу начальник убойного отдела майор Фёдор Туманов. В новом сезоне Туманов с капитаном Петром Грековым будут разгадывать ещё более изощрённые криминальные загадки. Например, в одной из них фигурирует чёрный тюльпан, что был в букете, который оказался на месте очередного преступления. Туманову кажется всё это подозрительным: чёрный тюльпан уж слишком контрастирует с нежными белыми розами. Греков считает, что Туманов отстал от жизни, ведь сейчас в нынешнем гламурном обществе нет никаких правил. Нашим операм придётся выяснить, что это: «гламур и дизигн» от современных флористов или атрибут изощренных методов преступника?
Доп. информация: Релиз группа
Сэмпл
Качество: HDTVRip
Формат: AVI
Видео кодек: XviD
Аудио кодек: AC3
Видео: 720x400 (1.80:1), 25 fps, XviD build 73 ~1548 kbps avg, 0.22 bit/pixel
Аудио: 48 kHz, AC3 Dolby Digital, 2/0 (L,R) ch, ~192.00 kbps avg

MI

General
Complete name : Y:\раздачи\Паутина 9..2015.HDTVRip.RG.Russkie.serialy.&.Files-x.Паутина 9..2015.HDTVRip.RG.Russkie.serialy.&.Files-x.avi
Format : AVI
Format/Info : Audio Video Interleave
File size : 550 MiB
Duration : 46mn 0s
Overall bit rate : 1 670 Kbps
Writing application : VirtualDubMod 1.5.10.3 | www.virtualdub-fr.org || (build 2550/release)
Writing library : VirtualDubMod build 2550/release
Video
ID : 0
Format : MPEG-4 Visual
Format profile : Advanced [email protected]
Format settings, BVOP : 1
Format settings, QPel : No
Format settings, GMC : No warppoints
Format settings, Matrix : Custom
Codec ID : XVID
Codec ID/Hint : XviD
Duration : 46mn 0s
Bit rate : 1 468 Kbps
Width : 720 pixels
Height : 400 pixels
Display aspect ratio : 16:9
Frame rate : 25.000 fps
Color space : YUV
Chroma subsampling : 4:2:0
Bit depth : 8 bits
Scan type : Progressive
Compression mode : Lossy
Bits/(Pixel*Frame) : 0.204
Stream size : 483 MiB (88%)
Writing library : XviD 73
Audio
ID : 1
Format : AC-3
Format/Info : Audio Coding 3
Mode extension : CM (complete main)
Format settings, Endianness : Big
Codec ID : 2000
Duration : 46mn 0s
Bit rate mode : Constant
Bit rate : 192 Kbps
Channel(s) : 2 channels
Channel positions : Front: L R
Sampling rate : 48.0 KHz
Compression mode : Lossy
Stream size : 63.2 MiB (11%)
Alignment : Split accross interleaves
Interleave, duration : 40 ms (1.00 video frame)
Interleave, preload duratio : 500 ms

Внимание! Раздача ведётся путём добавления новых серий!

Внимание! Раздача ведётся путём добавления новых серий
Внимание! Раздача ведётся путём добавления новых серий; при каждом добавлении создётся новый торрент.
Чтобы начать докачку новой серии, пользователям необходимо сделать следующее:
1) остановить скачивание
2) удалить старый торрент у себя из клиента (старые серии удалять не надо)
3) скачать новый торрент и запустить его у себя в клиенте вместо старого, при этом указать клиенту путь в старую папку куда и должно происходить скачивание новых серий.
Ваш клиент при этом должен произвести хеширование (проверку) старой папки (если не производит сам - помогите ему сделать это), и будет докачивать только те серии которых у вас ещё нет. Старые серии при этом не удаляются, а продолжают раздаваться!
Eсли вы уже удалили старые серии, то предотвратить повторную закачку старых серий можно, отжав галочку в соответствовавших местах при запуске нового торрента.

Скриншоты

[Профиль]  [ЛС] 
Показать сообщения:    
Ответить на тему

Текущее время: 11-Дек 12:53

Часовой пояс: UTC + 3



Вы не можете начинать темы
Вы не можете отвечать на сообщения
Вы не можете редактировать свои сообщения
Вы не можете удалять свои сообщения
Вы не можете голосовать в опросах
Вы не можете прикреплять файлы к сообщениям
Вы не можете скачивать файлы