Новейший завет / Le tout nouveau testament (2015) WEB-DL 720p | iTunes

Ответить на тему
Статистика раздачи [Обновить пиров]
Скачал: [ 9 ]
 
   
 
 
Автор
Сообщение

novo4ek92 ®

Стаж: 10 месяцев 16 дней

Сообщений: 33

Создавать темы 24-Янв-2016 15:57

[Цитировать] 

Информация о фильме
Название: Новейший завет
Оригинальное название: Le tout nouveau testament
Год выхода: 2015
Жанр: комедия
Режиссер: Жако ван Дормель
В ролях: Бенуа Пульворд, Катрин Денёв, Франсуа Дамиенс, Иоланда Моро, Пили Груан, Лаура Верлинден, Серж Ларивье, Дидье Де Нек, Марко Лоренцини, Ромен Желен
О фильме: Да, Бог существует. Но он совсем не такой, каким мы его представляли. Он живет в Брюсселе, и у него есть не только сын, но и дочь. Она сбегает из дома и отправляется в наш мир искать приключения и испытывать терпение своего отца на прочность. Надолго ли его хватит?..

Выпущено: Бельгия, Франция, Люксембург
Продолжительность: 01:54:30
Озвучивание: Дублированное [iTunes]
Файл
Формат: MKV
Качество: WEB-DL 720p
Видео: MPEG-4 AVC, 3902 kb/s, 1280x538
Аудио: AC3, 384 kb/s (6 ch)

MI

Format : Matroska
Format version : Version 4 / Version 2
File size : 3.50 GiB
Duration : 1h 54mn
Overall bit rate : 4 373 Kbps
Encoded date : UTC 2015-12-19 19:11:33
Writing application : mkvmerge v8.3.0 ('Over the Horizon') 64bit
Writing library : libebml v1.3.1 + libmatroska v1.4.2
Video
ID : 1
Format : AVC
Format/Info : Advanced Video Codec
Format profile : [email protected]
Format settings, CABAC : No
Format settings, ReFrames : 2 frames
Codec ID : V_MPEG4/ISO/AVC
Duration : 1h 54mn
Bit rate : 3 902 Kbps
Width : 1 280 pixels
Height : 538 pixels
Display aspect ratio : 2.40:1
Frame rate mode : Constant
Frame rate : 24.000 fps
Color space : YUV
Chroma subsampling : 4:2:0
Bit depth : 8 bits
Scan type : Progressive
Bits/(Pixel*Frame) : 0.236
Stream size : 3.12 GiB (89%)
Language : English
Default : Yes
Forced : No
Color range : Limited
Color primaries : BT.709
Transfer characteristics : BT.709
Matrix coefficients : BT.709
Audio
ID : 2
Format : AC-3
Format/Info : Audio Coding 3
Mode extension : CM (complete main)
Format settings, Endianness : Big
Codec ID : A_AC3
Duration : 1h 54mn
Bit rate mode : Constant
Bit rate : 384 Kbps
Channel(s) : 6 channels
Channel positions : Front: L C R, Side: L R, LFE
Sampling rate : 48.0 KHz
Bit depth : 16 bits
Compression mode : Lossy
Stream size : 315 MiB (9%)
Language : Russian
Default : Yes
Forced : No
Menu
00:00:00.000 : en:Глава 1
00:06:35.000 : en:Глава 2
00:11:39.000 : en:Глава 3
00:16:47.000 : en:Глава 4
00:22:08.000 : en:Глава 5
00:27:13.000 : en:Глава 6
00:33:02.000 : en:Глава 7
00:40:46.000 : en:Глава 8
00:46:26.000 : en:Глава 9
00:52:06.000 : en:Глава 10
00:58:21.000 : en:Глава 11
01:03:58.000 : en:Глава 12
01:09:46.000 : en:Глава 13
01:14:47.000 : en:Глава 14
01:20:23.000 : en:Глава 15
01:27:01.000 : en:Глава 16
01:32:39.000 : en:Глава 17
01:38:00.000 : en:Глава 18
01:43:31.000 : en:Глава 19

Скриншоты




[Профиль]  [ЛС] 
Показать сообщения:    
Ответить на тему

Текущее время: 07-Дек 23:11

Часовой пояс: UTC + 3



Вы не можете начинать темы
Вы не можете отвечать на сообщения
Вы не можете редактировать свои сообщения
Вы не можете удалять свои сообщения
Вы не можете голосовать в опросах
Вы не можете прикреплять файлы к сообщениям
Вы не можете скачивать файлы