Кто там / Knock Knock (2015) BDRip 720p | iTunes

Ответить на тему
Статистика раздачи [Обновить пиров]
Скачал: [ 8 ]
 
   
 
 
Автор
Сообщение

novo4ek92 ®

Стаж: 10 месяцев 19 дней

Сообщений: 33

Создавать темы 25-Янв-2016 10:01

[Цитировать] 

Информация о фильме
Название: Кто там
Оригинальное название: Knock Knock
Страна: Чили, США
Студия: Black Bear Pictures, Camp Grey, Dragonfly Entertainment
Жанр: ужасы, триллер
Год выпуска: 2015
Продолжительность: 01:39:47
Перевод: Профессиональный (дублированный) iTunes
Cубтитры: Rus, Eng
Оригинальная аудиодорожка: английский
Режиссер: Элай Рот / Eli Roth
В ролях: Киану Ривз, Лоренца Иззо, Ана де Армас, Аарон Барнс, Игнасия Алламанд, Дэн Бейли, Меган Бейли, Коллин Кэмп, Антонио Куэрча
Описание: Отправив семью за город, архитектор Эван остается на выходных дома один доделывать срочный проект.
К нему стучатся две милые молодые девушки лет двадцати, насквозь промокшие и заблудившиеся. Эван не мог предположить, что протянутая рука помощи обернется для него чередой изощренных издевательств, изысканных пыток и медленного садистского уничтожения семьи…

Тип релиза: BDRip 720p
Контейнер: MKV
Видео: MPEG-4 AVC, 6011 Кбит/с, 1280x536, 23,976 fps
Аудио: Rus, AC3, 384 kb/s (6 ch), 48 kHz
Аудио 2: Eng, AC3, 640 kb/s (6 ch), 48 kHz
Формат субтитров: softsub (SRT)

MediaInfo

x264 [info]: frame I:1193 Avg QP:15.82 size:109682
x264 [info]: frame P:30654 Avg QP:17.05 size: 52188
x264 [info]: frame B:111699 Avg QP:17.92 size: 25725
Format : Matroska
Format version : Version 4 / Version 2
File size : 5.00 GiB
Duration : 1h 39mn
Overall bit rate : 7 178 Kbps
Movie name : Кто Там. (Tonik)
Encoded date : UTC 2016-01-25 02:28:33
Writing application : mkvmerge v7.1.0 ('Good Love') 64bit built on Jul 27 2014 13:06:55
Writing library : libebml v1.3.0 + libmatroska v1.4.1
_STATISTICS_WRITING_APP : mkvmerge v7.1.0 ('Good Love') 64bit built on Jul 27 2014 13:06:55
_STATISTICS_WRITING_DATE_UTC : 2016-01-25 02:28:33
_STATISTICS_TAGS : BPS DURATION NUMBER_OF_FRAMES NUMBER_OF_BYTES
DURATION : 01:31:43.811000000
NUMBER_OF_FRAMES : 1332
NUMBER_OF_BYTES : 63997
Video
ID : 1
Format : AVC
Format/Info : Advanced Video Codec
Format profile : [email protected]
Format settings, CABAC : Yes
Format settings, ReFrames : 12 frames
Codec ID : V_MPEG4/ISO/AVC
Duration : 1h 39mn
Bit rate : 6 011 Kbps
Width : 1 280 pixels
Height : 536 pixels
Display aspect ratio : 2.40:1
Frame rate mode : Constant
Frame rate : 23.976 fps
Color space : YUV
Chroma subsampling : 4:2:0
Bit depth : 8 bits
Scan type : Progressive
Bits/(Pixel*Frame) : 0.365
Stream size : 4.19 GiB (84%)
Writing library : x264 core 142 r2431+42 c69a006 tMod [[email protected] X86_64]
Encoding settings : cabac=1 / ref=12 / deblock=1:-3:-3 / analyse=0x3:0x133 / me=umh / subme=11 / psy=1 / fade_compensate=0.00 / psy_rd=1.00:0.00 / mixed_ref=1 / me_range=32 / chroma_me=1 / trellis=2 / 8x8dct=1 / cqm=0 / deadzone=21,11 / fast_pskip=1 / chroma_qp_offset=-2 / threads=12 / lookahead_threads=2 / sliced_threads=0 / nr=0 / decimate=0 / interlaced=0 / bluray_compat=0 / constrained_intra=0 / fgo=0 / bframes=8 / b_pyramid=2 / b_adapt=2 / b_bias=0 / direct=3 / weightb=1 / open_gop=0 / weightp=2 / keyint=250 / keyint_min=23 / scenecut=40 / intra_refresh=0 / rc_lookahead=60 / rc=crf / mbtree=0 / crf=16.9000 / qcomp=0.65 / qpmin=0:0:0 / qpmax=69:69:69 / qpstep=4 / vbv_maxrate=62500 / vbv_bufsize=78125 / crf_max=0.0 / nal_hrd=none / filler=0 / ip_ratio=1.24 / pb_ratio=1.18 / aq=3:0.80 / aq-sensitivity=10.00 / aq-factor=1.00:1.00:1.00 / aq2=0 / aq3=0 / zones=40,500,crf=14/86498,86531,crf=14/87348,87419,crf=14/138019,143401,crf=22/143402,143521,crf=14
Language : English
Default : Yes
Forced : No
Color range : Limited
Matrix coefficients : BT.709
_STATISTICS_WRITING_APP : mkvmerge v7.1.0 ('Good Love') 64bit built on Jul 27 2014 13:06:55
_STATISTICS_WRITING_DATE_UTC : 2016-01-25 02:28:33
_STATISTICS_TAGS : BPS DURATION NUMBER_OF_FRAMES NUMBER_OF_BYTES
DURATION : 01:39:47.065000000
NUMBER_OF_FRAMES : 143546
NUMBER_OF_BYTES : 4604099103
Audio #1
ID : 2
Format : AC-3
Format/Info : Audio Coding 3
Mode extension : CM (complete main)
Format settings, Endianness : Big
Codec ID : A_AC3
Duration : 1h 39mn
Bit rate mode : Constant
Bit rate : 384 Kbps
Channel(s) : 6 channels
Channel positions : Front: L C R, Side: L R, LFE
Sampling rate : 48.0 KHz
Bit depth : 16 bits
Compression mode : Lossy
Stream size : 274 MiB (5%)
Title : iTunes
Language : Russian
Default : Yes
Forced : No
Audio #2
ID : 3
Format : AC-3
Format/Info : Audio Coding 3
Mode extension : CM (complete main)
Format settings, Endianness : Big
Codec ID : A_AC3
Duration : 1h 39mn
Bit rate mode : Constant
Bit rate : 640 Kbps
Channel(s) : 6 channels
Channel positions : Front: L C R, Side: L R, LFE
Sampling rate : 48.0 KHz
Bit depth : 16 bits
Compression mode : Lossy
Stream size : 457 MiB (9%)
Language : English
Default : No
Forced : No
Text #1
ID : 4
Format : UTF-8
Codec ID : S_TEXT/UTF8
Codec ID/Info : UTF-8 Plain Text
Language : Russian
Default : No
Forced : No
Text #2
ID : 5
Format : UTF-8
Codec ID : S_TEXT/UTF8
Codec ID/Info : UTF-8 Plain Text
Language : English
Default : No
Forced : No
Text #3
ID : 6
Format : UTF-8
Codec ID : S_TEXT/UTF8
Codec ID/Info : UTF-8 Plain Text
Title : SDH
Language : English
Default : No
Forced : No
Menu
00:00:00.000 : en:00:00:00.000
00:06:51.786 : en:00:06:51.786
00:10:31.422 : en:00:10:31.422
00:12:34.587 : en:00:12:34.587
00:20:51.208 : en:00:20:51.208
00:31:25.383 : en:00:31:25.383
00:35:31.755 : en:00:35:31.755
00:38:41.277 : en:00:38:41.277
00:45:00.406 : en:00:45:00.406
00:52:40.616 : en:00:52:40.616
01:00:14.444 : en:01:00:14.444
01:02:19.069 : en:01:02:19.069
01:11:58.689 : en:01:11:58.689
01:18:03.929 : en:01:18:03.929
01:26:09.748 : en:01:26:09.748
01:34:14.607 : en:01:34:14.607

Скриншоты

[Профиль]  [ЛС] 
Показать сообщения:    
Ответить на тему

Текущее время: 11-Дек 01:17

Часовой пояс: UTC + 3



Вы не можете начинать темы
Вы не можете отвечать на сообщения
Вы не можете редактировать свои сообщения
Вы не можете удалять свои сообщения
Вы не можете голосовать в опросах
Вы не можете прикреплять файлы к сообщениям
Вы не можете скачивать файлы