Он – дракон (2015) WEB-DL 720p | iTunes

Ответить на тему
Статистика раздачи [Обновить пиров]
Нет
 
   
 
 
Автор
Сообщение

novo4ek92 ®

Стаж: 10 месяцев 11 дней

Сообщений: 33

Создавать темы 29-Янв-2016 16:40

[Цитировать] 

Информация о фильме
Название: Он – дракон
Оригинальное название: Он – дракон
Год выхода: 2015
Жанр: фэнтези
Режиссер: Индар Джендубаев
В ролях: Мария Поезжаева, Матвей Лыков, Станислав Любшин, Иева Андреевайте, Петр Романов, Андрей Лебединский, Марта Тимофеева, Иво Господинов, Егор Зубарчук, Виктория Рунцова
О фильме: В разгар свадьбы княжну Мирославу похищает дракон, унося в свой замок на острове. В прошлом остались родные, жених, теперь только каменный плен в компании прекрасного Армана… но кто он и как оказался на острове? Мира поймет это слишком поздно: любовь к нему, человеку-дракону, откроет ей горькую истину — любить страшно.

Выпущено: Россия / Базелевс Продакшн
Продолжительность: 01:46:54
Озвучивание: Оригинальное [iTunes]
Файл
Формат: MKV
Качество: WEB-DL 720p
Видео: MPEG-4 AVC, 3910 kb/s, 1280x536
Аудио: AC3, 384 kb/s (6 ch)

MI

Format : Matroska
Format version : Version 4 / Version 2
File size : 3.27 GiB
Duration : 1h 46mn
Overall bit rate : 4 381 Kbps
Encoded date : UTC 2015-12-30 19:36:05
Writing application : mkvmerge v8.3.0 ('Over the Horizon') 64bit
Writing library : libebml v1.3.1 + libmatroska v1.4.2
Video
ID : 1
Format : AVC
Format/Info : Advanced Video Codec
Format profile : [email protected]
Format settings, CABAC : No
Format settings, ReFrames : 2 frames
Codec ID : V_MPEG4/ISO/AVC
Duration : 1h 46mn
Bit rate : 3 910 Kbps
Width : 1 280 pixels
Height : 536 pixels
Display aspect ratio : 2.40:1
Frame rate mode : Constant
Frame rate : 24.000 fps
Color space : YUV
Chroma subsampling : 4:2:0
Bit depth : 8 bits
Scan type : Progressive
Bits/(Pixel*Frame) : 0.237
Stream size : 2.92 GiB (89%)
Language : English
Default : Yes
Forced : No
Color range : Limited
Color primaries : BT.709
Transfer characteristics : BT.709
Matrix coefficients : BT.709
Audio
ID : 2
Format : AC-3
Format/Info : Audio Coding 3
Mode extension : CM (complete main)
Format settings, Endianness : Big
Codec ID : A_AC3
Duration : 1h 46mn
Bit rate mode : Constant
Bit rate : 384 Kbps
Channel(s) : 6 channels
Channel positions : Front: L C R, Side: L R, LFE
Sampling rate : 48.0 KHz
Bit depth : 16 bits
Compression mode : Lossy
Stream size : 294 MiB (9%)
Language : Russian
Default : Yes
Forced : No
Menu
00:00:00.000 : en:Глава 1
00:05:26.000 : en:Глава 2
00:11:15.000 : en:Глава 3
00:16:58.000 : en:Глава 4
00:24:09.000 : en:Глава 5
00:29:45.000 : en:Глава 6
00:34:48.000 : en:Глава 7
00:41:26.000 : en:Глава 8
00:46:47.000 : en:Глава 9
00:53:25.000 : en:Глава 10
00:58:43.000 : en:Глава 11
01:03:46.000 : en:Глава 12
01:09:21.000 : en:Глава 13
01:15:07.000 : en:Глава 14
01:20:21.000 : en:Глава 15
01:27:49.000 : en:Глава 16
01:34:16.000 : en:Глава 17
01:39:57.000 : en:Глава 18

Скриншоты




[Профиль]  [ЛС] 
Показать сообщения:    
Ответить на тему

Текущее время: 02-Дек 22:48

Часовой пояс: UTC + 3



Вы не можете начинать темы
Вы не можете отвечать на сообщения
Вы не можете редактировать свои сообщения
Вы не можете удалять свои сообщения
Вы не можете голосовать в опросах
Вы не можете прикреплять файлы к сообщениям
Вы не можете скачивать файлы