Метод Фрейда 2 / Сезон: 2 / Серии: 1-12 из 12 (Иван Стаханов) [2015, Детектив, криминал, WEB-DLRip]

Ответить на тему
Статистика раздачи [Обновить пиров]
Качаю: [ 1 ]
Скачал: [ 6 ]
 
   
 
 
Автор
Сообщение

dimdim ®

Стаж: 6 лет 7 месяцев

Сообщений: 112

Создавать темы 26-Фев-2016 21:00

[Цитировать] 

Метод Фрейда 2
Год выпуска: 2015
Производство: Стар-Медиа
Жанр: Детектив, криминал
Продолжительность: 12 x ~ 00:50:00
Режиссёр: Иван Стаханов
В ролях: Иван Охлобыстин, Наталия Антонова, Алексей Гришин, Артур Ваха, Роман Полянский, Ольга Дибцева, Татьяна Лютаева, Кирилл Кяро, Юлия Галкина, Александр Хващинский, Ольга Кавалай-Аксёнова, Екатерина Молоховская, Сергей Комаров (II), Янис Политов, Георгий Лежава, Юрий Коноплянников, Елена Подкаминская, Ксения Энтелис, Ирина Гавра, Александр Сергеев (IV)
Описание: Роман Фрейдин продолжает участвовать в расследованиях преступлений, в совершении которых подозревают женщин. Но при ближайшем рассмотрении всегда оказывается, что женщина, какими бы ни были ее вина и участие в убийстве - жертва обстоятельств. Действия женщины - всегда защитная реакция на несправедливость жизни, несовершенство мира, созданного мужчинами для самих себя и организованного по мужским законам.
Качество: WEB-DLRip
Формат: AVI
Видео кодек: XviD
Аудио кодек: MP3
Видео: XviD, ~ 900 Кбит/с, 656x368
Аудио: MP3, 2 ch, 128 Кбит/с

MI

Полное имя : Method.Frejda.2.2015.XviD.WEB-DLRip.by.GeneralFilmSerija.01.avi
Формат : AVI
Формат/Информация : Audio Video Interleave
Размер файла : 373 Мбайт
Продолжительность : 48 м.
Общий поток : 1066 Кбит/сек
Программа кодирования : VirtualDubMod 1.5.10.3 | www.virtualdub-fr.org || (build 2550/release)
Библиотека кодирования : VirtualDubMod build 2550/release
Видео
Идентификатор : 0
Формат : MPEG-4 Visual
Профиль формата : Advanced [email protected]
Параметр BVOP формата : 1
Параметр QPel формата : Нет
Параметр GMC формата : Без точки перехода
Параметр матрицы формата : Выборочная
Идентификатор кодека : XVID
Идентификатор кодека/Подсказка : XviD
Продолжительность : 48 м.
Битрейт : 928 Кбит/сек
Ширина : 656 пикселей
Высота : 368 пикселей
Соотношение сторон : 16:9
Частота кадров : 25,000 кадров/сек
Цветовое пространство : YUV
Субдискретизация насыщенности : 4:2:0
Битовая глубина : 8 бит
Тип развёртки : Прогрессивная
Метод сжатия : С потерями
Бит/(Пиксели*Кадры) : 0.154
Размер потока : 324 Мбайт (87%)
Библиотека кодирования : XviD 73
Аудио
Идентификатор : 1
Формат : MPEG Audio
Версия формата : Version 1
Профиль формата : Layer 3
Идентификатор кодека : 55
Идентификатор кодека/Подсказка : MP3
Продолжительность : 48 м.
Вид битрейта : Постоянный
Битрейт : 128 Кбит/сек
Каналы : 2 канала
Частота : 48,0 КГц
Метод сжатия : С потерями
Размер потока : 44,7 Мбайт (12%)
Выравнивание : Соединение по промежуткам
Продолжительность промежутка : 40 мс. (1,00 видеокадр)
Время предзагрузки промежутка : 504 мс.
Библиотека кодирования : LAME3.99r
Настройки программы : -m s -V 4 -q 0 -lowpass 17 -b 128

Скриншоты

[Профиль]  [ЛС] 
Похожие темы
Форум Тема Автор Размер
Отечественные сериалы Метод / Сезон: 1 / Серии: 1-11 из 16 (Юрий Быков) [2015, Психологический триллер, WEB-DLRip] от ExKinoRay Олег_SevStar 7,51 GB
Показать сообщения:    
Ответить на тему

Текущее время: 03-Дек 05:24

Часовой пояс: UTC + 3



Вы не можете начинать темы
Вы не можете отвечать на сообщения
Вы не можете редактировать свои сообщения
Вы не можете удалять свои сообщения
Вы не можете голосовать в опросах
Вы не можете прикреплять файлы к сообщениям
Вы не можете скачивать файлы