Звёздные войны: Пробуждение силы / Star Wars: Episode VII - The Force Awakens (Джей Джей Абрамс / J.J. Abrams) [2015, США, фантастика, фэнтези, боевик, приключения, BDRip] (Dub)

Ответить на тему
Статистика раздачи [Обновить пиров]
Качаю: [ 3 ]
Скачал: [ 32 ]
 
   
 
 
Автор
Сообщение

infernorays ®

Стаж: 7 лет 8 месяцев

Сообщений: 14

Откуда: оттуда

Создавать темы 09-Апр-2016 20:59

[Цитировать] 

Звёздные войны: Пробуждение силы / Star Wars: Episode VII - The Force Awakens- Страна: США
Жанр: фантастика, фэнтези, боевик, приключения
Год выпуска: 2015
Продолжительность: 02:18:06-Перевод: Профессиональный (дублированный)
Cубтитры: нет
Режиссер: Джей Джей Абрамс / J.J. Abrams-В ролях: Джон Бойега, Дэйзи Ридли, Оскар Айзек, Адам Драйвер, Донал Глисон, Харрисон Форд, Марк Хэмилл, Кэрри Фишер, Макс фон Сюдов, Энди Серкис, Лупита Нионго, Энтони Дэниелс, Питер Мейхью, Гвендолин Кристи, Пип Андерсон, Саймон Пегг, Киран Шах, Саша Фрост, Пип Торренс, Эндрю Джек-Описание: Через тридцать лет после гибели Дарта Вейдера и Императора галактика по-прежнему в опасности. Государственное образование Первый Орден во главе с их таинственным верховным лидером Сноуком и его правой рукой Кайло Реном идёт по стопам Империи, пытаясь захватить всю власть. В это нелёгкое время судьба сводит юную девушку Рей и бывшего штурмовика Первого Ордена Финна с героями времён войны с Империей — Ханом Соло, Чубаккой и генералом Леей. Вместе они должны дать бой Первому Ордену, однако настаёт тот момент, когда становится очевидно, что лишь джедаи могут остановить Сноука и Кайло Рена. И в галактике в живых остаётся только один…-Качество видео: BDRip
Формат видео: AVI-Видео: 720x304 (2.37:1), 23.976 fps, XviD build 67 ~1310 kbps avg, 0.25 bit/pixel
Аудио: 48 kHz, AC3 Dolby Digital, 2/0 (L,R) ch, ~192 kbps
-

MediaInfo

General
Complete name : D:\Zvezdnye_voiny_Probuzhdenie_sily_2015_BDRip_by_Dalemake.avi
Format : AVI
Format/Info : Audio Video Interleave
File size : 1.46 GiB
Duration : 2h 18mn
Overall bit rate : 1 512 Kbps
Writing application : VirtualDubMod 1.5.10.3 | www.virtualdub-fr.org || (build 2550/release)
Writing library : VirtualDubMod build 2550/release
Video
ID : 0
Format : MPEG-4 Visual
Format profile : Advanced [email protected]
Format settings, BVOP : 1
Format settings, QPel : No
Format settings, GMC : No warppoints
Format settings, Matrix : Custom
Codec ID : XVID
Codec ID/Hint : XviD
Duration : 2h 18mn
Bit rate : 1 311 Kbps
Width : 720 pixels
Height : 304 pixels
Display aspect ratio : 2.35:1
Frame rate : 23.976 (23976/1000) fps
Color space : YUV
Chroma subsampling : 4:2:0
Bit depth : 8 bits
Scan type : Progressive
Compression mode : Lossy
Bits/(Pixel*Frame) : 0.250
Stream size : 1.26 GiB (87%)
Writing library : XviD 67
Audio
ID : 1
Format : AC-3
Format/Info : Audio Coding 3
Mode extension : CM (complete main)
Format settings, Endianness : Big
Codec ID : 2000
Duration : 2h 18mn
Bit rate mode : Constant
Bit rate : 192 Kbps
Channel(s) : 2 channels
Channel positions : Front: L R
Sampling rate : 48.0 KHz
Frame rate : 31.250 fps (1536 spf)
Compression mode : Lossy
Stream size : 190 MiB (13%)
Alignment : Split accross interleaves
Interleave, duration : 42 ms (1.00 video frame)
Interleave, preload duration : 500 ms

Скриншоты

[Профиль]  [ЛС] 
Похожие темы
Форум Тема Автор Размер
FPS (1st Person) S.T.A.L.K.E.R.: Shadow of Chernobyl - Упавшая звезда. Честь наёмника (2013) (Zaurus' crew) (RUS) [P] Clieft 4,43 GB
Зарубежное кино Звёздные войны: Пробуждение силы / Star Wars: The Force Awakens (2015) BDRip | Чистый звук ЗвЕрЁк 2,18 GB
Документальные Звезды авиасалонов: лучшие из лучших (Андрей Кулясов) [2009 г., документальный, DVDRip] anatolyi100 2,24 GB
Отечественные сериалы Капкан для звезды [01-04 из 04] (2015) DVB от Files-x Олег_SevStar 3,59 GB
Аудиокниги Лем Станислав - "Звездные дневники Ийона Тихого" Oldket 572 MB
Отечественные сериалы Паук [Серии:1-8 из 8] (Евгений Звездаков) (2015, детектив, криминал, триллер, WEB-DLRip) anatolyi100 5,45 GB
Отечественные сериалы Рождённая звездой / Сезон: Серии: 1-12 из 12 (Марат Ким, Владимир Шевельков) [2015, Музыкальная ретро-мелодрама, SATRip] Олег_SevStar 6,98 GB
Отечественные сериалы Тальянка / Сезон: 1 / Серии: 1-8 из 8 (Евгений Звездаков) [2014, Мелодрама, HDTVRip] Олег_SevStar 4,69 GB
Показать сообщения:    
Ответить на тему

Текущее время: 05-Дек 13:28

Часовой пояс: UTC + 3



Вы не можете начинать темы
Вы не можете отвечать на сообщения
Вы не можете редактировать свои сообщения
Вы не можете удалять свои сообщения
Вы не можете голосовать в опросах
Вы не можете прикреплять файлы к сообщениям
Вы не можете скачивать файлы