Дэдпул / Deadpool (2016) BDRip 1080p от ExKinoRay | D, A | iTunes

Ответить на тему
Статистика раздачи [Обновить пиров]
Скачал: [ 14 ]
 
   
 
 
Автор
Сообщение

Тоха™ ®

Стаж: 8 лет 7 месяцев

Сообщений: 741

Откуда: N44°35'16.29" E033°30'28.48"

Создавать темы 29-Апр-2016 11:21

[Цитировать] 


Информация о фильме
Название: Дэдпул
Оригинальное название: Deadpool
Год выхода: 2016
Жанр: Фантастика, боевик, триллер, приключения, комедия
Режиссер: Тим Миллер
В ролях: Райан Рейнольдс, Морена Баккарин, Джина Карано, ТиДжей Миллер, Эд Скрейн, Рэйчел Шин, Брианна Хилдебранд, Андре Трикоте, Тэйлор Хиксон, Джед Риис
О фильме:
У бывшего спецназовца Уэйда Уилсона было все, о чем можно только мечтать: перспективная высокооплачиваемая работа, отдельная жилплощадь и неземной красоты девушка, работающая в местном стриптиз-клубе. Но однажды случается непоправимое - у молодого человека диагностируют рак. В результате несчастного случая при прохождении курса вакуумной химиотерапии его внешность приобретает очертания кошмаров Фредди Крюгера, а скорость генерирования шуток черного юмора взлетает в стратосферу. Сможет ли его девушка пережить крутую смену имиджа любимого человека? Сможет ли он сам удержать свою нестабильную психику на плаву и не скатиться по наклонной?

Страна: США
Студия: 20th Century Fox Film Corporation
Продолжительность: 01:48:42
Перевод:
Дублированный | iTunes
Авторский одноголосый (закадровый) | В. Гаевский
Файл
Кодек: MPEG-4
Качество: BDRip 1080p
Видео: 1920x808, 16732 Kbit/s, 23.976 fps
Звук:
Аудио #01: 48 kHz, AC3, 5.1, 384 Kbps | Дублированный, iTunes |
Аудио #02: 48 kHz, AC3, 2.0, 192 Kbps | Авторский одноголосый (закадровый), В.Гаевский |
Аудио #03: 48 kHz, AC3, 2.0, 384 Kbps | Дублированный, iTunes |
Аудио #04: 48 kHz, DTS-ES, 6.1, 1510 kbps | Оригинал |
Субтитры: Русские (forced,full), украинские (forced,full), английские (forced,full,SDH)
Релиз от: Автор релиза:

MI

Общее
Уникальный идентификатор : 244738105212548415022974867023976064495 (0xB81ED833854F221FB79255DDF74DE5EF)
Полное имя : F:VideoDeadpool.2016.BDRip.1080p.ExKinoRay.mkv
Формат : Matroska
Версия формата : Version 4 / Version 2
Размер файла : 14,5 Гбайт
Продолжительность : 1 ч. 48 м.
Общий поток : 19,2 Мбит/сек
Название фильма : Deadpool.2016.BDRip.1080p.ExKinoRay
Дата кодирования : UTC 2016-04-28 20:43:30
Программа кодирования : mkvmerge v8.3.0 ('Over the Horizon') 64bit
Библиотека кодирования : libebml v1.3.1 + libmatroska v1.4.2
Обложка : Yes
Attachments : cover.jpg
Видео
Идентификатор : 1
Формат : AVC
Формат/Информация : Advanced Video Codec
Профиль формата : [email protected]
Параметр CABAC формата : Да
Параметр ReFrames формата : 5 кадров
Идентификатор кодека : V_MPEG4/ISO/AVC
Продолжительность : 1 ч. 48 м.
Битрейт : 16,7 Мбит/сек
Ширина : 1920 пикселей
Высота : 808 пикселей
Соотношение сторон : 2,40:1
Режим частоты кадров : Постоянный
Частота кадров : 23,976 (24000/1001) кадра/сек
Цветовое пространство : YUV
Субдискретизация насыщенности : 4:2:0
Битовая глубина : 8 бит
Тип развёртки : Прогрессивная
Бит/(Пиксели*Кадры) : 0.450
Размер потока : 12,6 Гбайт (87%)
Библиотека кодирования : x264 core 146 r2538 121396c
Настройки программы : cabac=1 / ref=5 / deblock=1:-3:-3 / analyse=0x3:0x133 / me=umh / subme=11 / psy=1 / psy_rd=1.00:0.00 / mixed_ref=1 / me_range=48 / chroma_me=1 / trellis=2 / 8x8dct=1 / cqm=0 / deadzone=21,11 / fast_pskip=0 / chroma_qp_offset=-2 / threads=6 / lookahead_threads=1 / sliced_threads=0 / nr=0 / decimate=0 / interlaced=0 / bluray_compat=0 / constrained_intra=0 / bframes=16 / b_pyramid=2 / b_adapt=2 / b_bias=0 / direct=3 / weightb=1 / open_gop=0 / weightp=2 / keyint=240 / keyint_min=23 / scenecut=40 / intra_refresh=0 / rc_lookahead=60 / rc=2pass / mbtree=0 / bitrate=16732 / ratetol=1.0 / qcomp=0.60 / qpmin=0 / qpmax=69 / qpstep=4 / cplxblur=20.0 / qblur=0.5 / vbv_maxrate=50000 / vbv_bufsize=62500 / nal_hrd=none / filler=0 / ip_ratio=1.40 / pb_ratio=1.30 / aq=3:0.80
Язык : English
Default : Да
Forced : Нет
Аудио #1
Идентификатор : 2
Формат : AC-3
Формат/Информация : Audio Coding 3
Расширение режима : CM (complete main)
Параметр Endianness формата : Big
Идентификатор кодека : A_AC3
Продолжительность : 1 ч. 48 м.
Вид битрейта : Постоянный
Битрейт : 384 Кбит/сек
Каналы : 6 каналов
Расположение каналов : Front: L C R, Side: L R, LFE
Частота : 48,0 КГц
Частота кадров : 31,250 кадров/сек (1536 spf)
Метод сжатия : С потерями
Задержка видео : 2 с. 0 мс.
Размер потока : 297 Мбайт (2%)
Заголовок : DUB [iTunes]
Язык : Russian
Default : Да
Forced : Нет
Аудио #2
Идентификатор : 3
Формат : AC-3
Формат/Информация : Audio Coding 3
Расширение режима : CM (complete main)
Параметр Endianness формата : Big
Идентификатор кодека : A_AC3
Продолжительность : 1 ч. 48 м.
Вид битрейта : Постоянный
Битрейт : 192 Кбит/сек
Каналы : 2 канала
Расположение каналов : Front: L R
Частота : 48,0 КГц
Частота кадров : 31,250 кадров/сек (1536 spf)
Метод сжатия : С потерями
Задержка видео : 2 с. 0 мс.
Размер потока : 148 Мбайт (1%)
Заголовок : AVO [Gaevsky]
Язык : Russian
Default : Нет
Forced : Нет
Аудио #3
Идентификатор : 4
Формат : AC-3
Формат/Информация : Audio Coding 3
Расширение режима : CM (complete main)
Параметр Endianness формата : Big
Идентификатор кодека : A_AC3
Продолжительность : 1 ч. 48 м.
Вид битрейта : Постоянный
Битрейт : 384 Кбит/сек
Каналы : 2 канала
Расположение каналов : Front: L R
Частота : 48,0 КГц
Частота кадров : 31,250 кадров/сек (1536 spf)
Метод сжатия : С потерями
Задержка видео : 2 с. 0 мс.
Размер потока : 297 Мбайт (2%)
Язык : Ukrainian
Default : Нет
Forced : Нет
Аудио #4
Идентификатор : 5
Формат : DTS
Формат/Информация : Digital Theater Systems
Профиль формата : ES Matrix / Core
Режим : 16
Параметр Endianness формата : Big
Идентификатор кодека : A_DTS
Продолжительность : 1 ч. 48 м.
Вид битрейта : Постоянный
Битрейт : 1509 Кбит/сек
Каналы : 7 каналов / 6 каналов
Расположение каналов : Front: L C R, Side: L R, Back: C, LFE / Front: L C R, Side: L R, LFE
Частота : 48,0 КГц
Частота кадров : 93,750 кадра/сек (512 spf)
Битовая глубина : 24 бит
Метод сжатия : С потерями
Размер потока : 1,14 Гбайт (8%)
Заголовок : DTS-ES [Original sound]
Язык : English
Default : Нет
Forced : Нет
Текст #1
Идентификатор : 6
Формат : UTF-8
Идентификатор кодека : S_TEXT/UTF8
Идентификатор кодека/Информация : UTF-8 Plain Text
Продолжительность : 1 ч. 33 м.
Битрейт : 0 бит/сек
Count of elements : 3
Размер потока : 136 байт (0%)
Заголовок : Forced [iTunes]
Язык : Russian
Default : Да
Forced : Нет
Текст #2
Идентификатор : 7
Формат : UTF-8
Идентификатор кодека : S_TEXT/UTF8
Идентификатор кодека/Информация : UTF-8 Plain Text
Продолжительность : 1 ч. 47 м.
Битрейт : 87 бит/сек
Count of elements : 1404
Размер потока : 68,8 Кбайт (0%)
Заголовок : RUS [iTunes]
Язык : Russian
Default : Нет
Forced : Нет
Текст #3
Идентификатор : 8
Формат : UTF-8
Идентификатор кодека : S_TEXT/UTF8
Идентификатор кодека/Информация : UTF-8 Plain Text
Продолжительность : 1 ч. 47 м.
Битрейт : 0 бит/сек
Count of elements : 13
Размер потока : 591 байт (0%)
Заголовок : Forced [iTunes]
Язык : Ukrainian
Default : Нет
Forced : Нет
Текст #4
Идентификатор : 9
Формат : UTF-8
Идентификатор кодека : S_TEXT/UTF8
Идентификатор кодека/Информация : UTF-8 Plain Text
Продолжительность : 1 ч. 47 м.
Битрейт : 92 бит/сек
Count of elements : 1420
Размер потока : 73,0 Кбайт (0%)
Заголовок : UKR [iTunes]
Язык : Ukrainian
Default : Нет
Forced : Нет
Текст #5
Идентификатор : 10
Формат : UTF-8
Идентификатор кодека : S_TEXT/UTF8
Идентификатор кодека/Информация : UTF-8 Plain Text
Продолжительность : 1 с. 918 мс.
Битрейт : 70 бит/сек
Count of elements : 1
Размер потока : 17,0 байт (0%)
Заголовок : Forced
Язык : English
Default : Нет
Forced : Нет
Текст #6
Идентификатор : 11
Формат : UTF-8
Идентификатор кодека : S_TEXT/UTF8
Идентификатор кодека/Информация : UTF-8 Plain Text
Продолжительность : 1 ч. 44 м.
Битрейт : 55 бит/сек
Count of elements : 1383
Размер потока : 43,0 Кбайт (0%)
Заголовок : ENG [iTunes]
Язык : English
Default : Нет
Forced : Нет
Текст #7
Идентификатор : 12
Формат : UTF-8
Идентификатор кодека : S_TEXT/UTF8
Идентификатор кодека/Информация : UTF-8 Plain Text
Продолжительность : 1 ч. 44 м.
Битрейт : 58 бит/сек
Count of elements : 1571
Размер потока : 44,7 Кбайт (0%)
Язык : English
Default : Нет
Forced : Нет
Текст #8
Идентификатор : 13
Формат : UTF-8
Идентификатор кодека : S_TEXT/UTF8
Идентификатор кодека/Информация : UTF-8 Plain Text
Продолжительность : 1 ч. 47 м.
Битрейт : 63 бит/сек
Count of elements : 1852
Размер потока : 50,3 Кбайт (0%)
Заголовок : SDH
Язык : English
Default : Нет
Forced : Нет
Меню
00:00:00.000 : en:1
00:03:02.724 : en:2
00:05:51.017 : en:3
00:09:28.818 : en:4
00:13:17.087 : en:5
00:16:46.713 : en:6
00:20:10.541 : en:7
00:22:04.404 : en:8
00:27:07.623 : en:9
00:31:56.953 : en:10
00:36:49.704 : en:11
00:41:04.166 : en:12
00:44:43.760 : en:13
00:46:54.599 : en:14
00:50:08.960 : en:15
00:53:16.022 : en:16
00:55:31.032 : en:17
00:59:05.746 : en:18
01:03:03.233 : en:19
01:07:04.432 : en:20
01:09:13.561 : en:21
01:12:27.713 : en:22
01:16:44.386 : en:23
01:20:41.706 : en:24
01:25:51.390 : en:25
01:31:01.783 : en:26
01:34:44.964 : en:27
01:39:50.728 : en:28

Скриншоты

[Профиль]  [ЛС] 
Показать сообщения:    
Ответить на тему

Текущее время: 09-Дек 04:53

Часовой пояс: UTC + 3



Вы не можете начинать темы
Вы не можете отвечать на сообщения
Вы не можете редактировать свои сообщения
Вы не можете удалять свои сообщения
Вы не можете голосовать в опросах
Вы не можете прикреплять файлы к сообщениям
Вы не можете скачивать файлы