Колония Дигнидад / Colonia (2015) WEB-DL 720p | D | Line

Ответить на тему
Статистика раздачи [Обновить пиров]
Качаю: [ 1 ]
Скачал: [ 38 ]
 
   
 
 
Автор
Сообщение

Тоха™ ®

Стаж: 8 лет 7 месяцев

Сообщений: 736

Откуда: N44°35'16.29" E033°30'28.48"

Создавать темы 29-Апр-2016 19:04

[Цитировать] 

Информация о фильме
Название: Колония Дигнидад
Оригинальное название: Colonia
Год выхода: 2015
Страна: Германия Люксембург Франция
Производство: Fred Films, Iris Productions, Majestic Filmproduktion, Rat Pack Filmproduktion GmbH
Жанр: триллер, драма, мелодрама, история
Продолжительность: 01:49:54
Перевод: Профессиональный (полное дублирование) | чистый звук
Режиссер: Флориан Галленбергер
В ролях: Эмма Уотсон, Даниэль Брюль, Микаэл Нюквист, Риченда Кэри, Вики Крипс, Джинн Вернер, Джулиан Овенден
О фильме:
Немецкий журналист Даниэль похищен в Чили тайной полицией и после немыслимых пыток отправлен в колонию «Дигнидад» — огромное поселение, выдающее себя за благотворительную коммуну, а на самом деле гнездо нацистов — беглецов из Третьего рейха. Колонию возглавляет бывший офицер вермахта, бесноватый проповедник Пауль Шефер, внушающий пастве пользу умерщвления плоти и бесплатного труда от заката до рассвета. В «Дигнидад» легко попасть, но обратной дороги нет. Здесь Даниэлю предстоит превратиться в раба и «материал» для бесчеловечных экспериментов.
Но подвиги во имя любви совершают не только мужчины. Девушка Даниэля, отважная стюардесса Лена, решает спасти его. В одиночку. Ради любимого она готова на всё и даже больше. Добровольно, под видом послушницы, Лена отправляется в это страшное место…
Доп. информация:
Дата премьеры (мир): 13 сентября 2015
Дата премьеры (РФ): 31 марта 2016, «Cinema Prestige»
Сэмпл
Файл
Формат: MKV
Качество: WEB-DL 720p
Видео: MPEG4-AVC, [email protected], 1280x532 (2,40:1), ~ 3 954 Kbps, 23.976 fps
Звук #1: 48.0 KHz, AC3 2.0, 384 kbps (Русский, дублированный)
Звук #2: 48.0 KHz, AC3 5.1, 384 kbps (Английский)
Субтитры: английские
Главы: есть

MI

Колония Дигнидад. 2O15.Dub.WEB-DL.720p.mkv
Format : Matroska
Format version : Version 2
File size : 3.70 GiB
Duration : 1h 49mn
Overall bit rate : 4 818 Kbps
Movie name : -merci-
Encoded date : UTC 2016-04-22 06:40:32
Writing application : mkvmerge v5.8.0 ('No Sleep / Pillow') built on Sep 2 2012 15:37:04
Writing library : libebml v1.2.3 + libmatroska v1.3.0
Video
ID : 1
Format : AVC
Format/Info : Advanced Video Codec
Format profile : [email protected]
Format settings, CABAC : No
Format settings, ReFrames : 2 frames
Codec ID : V_MPEG4/ISO/AVC
Duration : 1h 49mn
Bit rate : 3 954 Kbps
Width : 1 280 pixels
Height : 532 pixels
Display aspect ratio : 2.40:1
Frame rate mode : Constant
Frame rate : 23.976 fps
Color space : YUV
Chroma subsampling : 4:2:0
Bit depth : 8 bits
Scan type : Progressive
Bits/(Pixel*Frame) : 0.242
Stream size : 3.03 GiB (82%)
Title : Колония Дигнидад. 2O15.WEB-DL.720p.x264.PLAYNOW[][VR56]
Language : English
Default : Yes
Forced : No
Color range : Limited
Color primaries : BT.709
Transfer characteristics : BT.709
Matrix coefficients : BT.709
Audio #1
ID : 2
Format : AC-3
Format/Info : Audio Coding 3
Mode extension : CM (complete main)
Format settings, Endianness : Big
Codec ID : A_AC3
Duration : 1h 49mn
Bit rate mode : Constant
Bit rate : 384 Kbps
Channel(s) : 2 channels
Channel positions : Front: L R
Sampling rate : 48.0 KHz
Frame rate : 31.250 fps (1536 spf)
Compression mode : Lossy
Stream size : 302 MiB (8%)
Title : Dub
Language : Russian
Default : Yes
Forced : No
Audio #2
ID : 3
Format : AC-3
Format/Info : Audio Coding 3
Mode extension : CM (complete main)
Format settings, Endianness : Big
Codec ID : A_AC3
Duration : 1h 49mn
Bit rate mode : Constant
Bit rate : 384 Kbps
Channel(s) : 6 channels
Channel positions : Front: L C R, Side: L R, LFE
Sampling rate : 48.0 KHz
Frame rate : 31.250 fps (1536 spf)
Compression mode : Lossy
Stream size : 302 MiB (8%)
Title : Eng
Language : English
Default : No
Forced : No
Text
ID : 4
Format : UTF-8
Codec ID : S_TEXT/UTF8
Codec ID/Info : UTF-8 Plain Text
Title : eng
Language : English
Default : No
Forced : No
Menu
00:00:00.000 : en:Chapter 1
00:12:00.720 : en:Chapter 2
00:20:21.220 : en:Chapter 3
00:29:54.793 : en:Chapter 4
00:40:16.414 : en:Chapter 5
00:53:45.222 : en:Chapter 6
01:00:05.602 : en:Chapter 7
01:13:43.419 : en:Chapter 8
01:23:27.002 : en:Chapter 9
01:31:10.465 : en:Chapter 10
01:44:28.262 : en:Chapter 11

Скриншоты

Релиз от:
[Профиль]  [ЛС] 

МСМ

Стаж: 5 лет 9 месяцев

Сообщений: 43

Создавать темы 02-Май-2016 14:05 (спустя 2 дня 19 часов)

[Цитировать] 

О, хороший рейтинг, качаем.
[Профиль]  [ЛС] 
Показать сообщения:    
Ответить на тему

Текущее время: 04-Дек 17:13

Часовой пояс: UTC + 3



Вы не можете начинать темы
Вы не можете отвечать на сообщения
Вы не можете редактировать свои сообщения
Вы не можете удалять свои сообщения
Вы не можете голосовать в опросах
Вы не можете прикреплять файлы к сообщениям
Вы не можете скачивать файлы