Коробка (2015) WEB-DLRip-AVC от ExKinoRay | iTunes Russia

Ответить на тему
Статистика раздачи [Обновить пиров]
Качаю: [ 1 ]
Скачал: [ 54 ]
 
   
 
 
Автор
Сообщение

-=DoC(ToP)=-™ ®

Стаж: 5 лет 1 месяц

Сообщений: 472

Откуда: СЕВАСТОПОЛЬ

Создавать темы 01-Май-2016 21:15

[Цитировать] 

Информация о фильме
Оригинальное название: Коробка
Год выпуска: 2016
Жанр: Драма, спорт, комедия
Выпущено: Россия, Кинокомпания «Телесто»
Режиссер: Эдуард Бордуков
В ролях: Сергей Романович, Сергей Подольный, Кирилл Дегтярь, Георгий Соскин, Степан Тавризян, Сослан Засеев, Руслан Нигматулин, Ульви Вердиев, Стася Милославская, Евгения Дмитриева
О фильме: Костя, Серж, Мел и Танцор — лучшие друзья. Они молоды и увлечены уличным футболом. Самый крутой из них Костя. Его девушка Настя считает, что он должен попробовать себя в профессиональной футбольной команде, но для Кости уличный футбол — это его жизнь, а футбольная коробка — второй дом, где играют только друзья, только свои. Однажды команда Кости сталкивается на коробке с чужой компанией во главе с Дамиром, профессиональным футболистом. Не желая делить коробку, они устраивают жесткий бескомпромиссный турнир, в который постепенно втягиваются все жители двора. Ставки растут, и на кону уже не только коробка. На кону дружба и любовь. И пути назад нет. Теперь это не просто игра, это война!

Файл
Качество: WEB-DLRip (AVC)
Видео: MPEG-4 AVC, 3018 Кбит/с, 1024x576, 25 кадр/с
Аудио: AC3, 6 ch, 384 Кбит/с
Размер: 2.29 ГБ
Продолжительность: 01:36:10
Язык: Русский
Озвучивание - (iTunes Russia)
Сохранены оригинальные чаптеры как на исходном WEB-DL.

x264

x264 [info]: frame I:1390 Avg QP:15.35 size: 88208
x264 [info]: frame P:46133 Avg QP:18.62 size: 27294
x264 [info]: frame B:96726 Avg QP:20.11 size: 8217
x264 [info]: consecutive B-frames: 7.2% 10.3% 8.8% 64.0% 4.1% 4.5% 0.3% 0.6% 0.0% 0.2%
x264 [info]: mb I I16..4: 7.2% 62.9% 29.9%
x264 [info]: mb P I16..4: 0.6% 13.7% 1.7% P16..4: 28.1% 33.3% 13.8% 3.0% 0.3% skip: 5.6%
x264 [info]: mb B I16..4: 0.1% 1.5% 0.2% B16..8: 29.3% 21.7% 4.2% direct: 6.0% skip:37.1% L0:34.0% L1:45.6% BI:20.4%
x264 [info]: 8x8 transform intra:82.5% inter:47.6%
x264 [info]: direct mvs spatial:99.3% temporal:0.7%
x264 [info]: coded y,uvDC,uvAC intra: 93.3% 84.5% 60.2% inter: 26.1% 17.7% 9.5%
x264 [info]: i16 v,h,dc,p: 13% 11% 9% 67%
x264 [info]: i8 v,h,dc,ddl,ddr,vr,hd,vl,hu: 11% 11% 6% 8% 11% 11% 13% 12% 15%
x264 [info]: i4 v,h,dc,ddl,ddr,vr,hd,vl,hu: 12% 10% 4% 8% 15% 14% 14% 10% 12%
x264 [info]: i8c dc,h,v,p: 40% 25% 19% 16%
x264 [info]: Weighted P-Frames: Y:1.3% UV:0.3%
x264 [info]: ref P L0: 62.2% 12.0% 11.2% 4.4% 3.1% 2.1% 1.6% 1.0% 0.8% 0.6% 0.5% 0.4% 0.1% 0.0%
x264 [info]: ref B L0: 85.7% 8.1% 2.7% 1.2% 0.8% 0.5% 0.4% 0.2% 0.2% 0.1% 0.1%
x264 [info]: ref B L1: 97.1% 2.9%
x264 [info]: kb/s:3017.70

Инфо-файл

Общее
Уникальный идентификатор : 171558553365750592484133851940843367548 (0x8110F9BB4DE0DCE0A0C7A4618B872C7C)
Полное имя : D:ЗагрузкиKorobka. 20146.x264.WEB-DLRip.AVC.ExKinoRay.mkv
Формат : Matroska
Версия формата : Version 2
Размер файла : 2,29 Гбайт
Продолжительность : 1 ч. 36 м.
Общий поток : 3404 Кбит/сек
Название фильма : Коробка.2016.Rip by: ollan
Дата кодирования : UTC 2016-05-01 05:10:55
Программа кодирования : mkvmerge v5.6.0 ('Kenya Kane') built on May 27 2012 16:44:04
Библиотека кодирования : libebml v1.2.3 + libmatroska v1.3.0
Attachements : Cover - Korobka.png
Видео
Идентификатор : 1
Формат : AVC
Формат/Информация : Advanced Video Codec
Профиль формата : [email protected]
Параметр CABAC формата : Да
Параметр ReFrames формата : 12 кадров
Идентификатор кодека : V_MPEG4/ISO/AVC
Продолжительность : 1 ч. 36 м.
Битрейт : 3018 Кбит/сек
Ширина : 1024 пикселя
Высота : 576 пикселей
Соотношение сторон : 16:9
Режим частоты кадров : Постоянный
Частота кадров : 25,000 кадров/сек
Цветовое пространство : YUV
Субдискретизация насыщенности : 4:2:0
Битовая глубина : 8 бит
Тип развёртки : Прогрессивная
Бит/(Пиксели*Кадры) : 0.205
Размер потока : 1,98 Гбайт (87%)
Библиотека кодирования : x264 core 146 r2538 121396c
Настройки программы : cabac=1 / ref=12 / deblock=1:-3:-3 / analyse=0x3:0x133 / me=umh / subme=11 / psy=1 / psy_rd=1.00:0.10 / mixed_ref=1 / me_range=48 / chroma_me=1 / trellis=2 / 8x8dct=1 / cqm=0 / deadzone=21,11 / fast_pskip=0 / chroma_qp_offset=-3 / threads=12 / lookahead_threads=2 / sliced_threads=0 / nr=0 / decimate=0 / interlaced=0 / bluray_compat=0 / constrained_intra=0 / bframes=9 / b_pyramid=2 / b_adapt=2 / b_bias=0 / direct=3 / weightb=1 / open_gop=0 / weightp=2 / keyint=250 / keyint_min=25 / scenecut=40 / intra_refresh=0 / rc_lookahead=40 / rc=2pass / mbtree=0 / bitrate=3018 / ratetol=1.0 / qcomp=0.60 / qpmin=0 / qpmax=69 / qpstep=4 / cplxblur=20.0 / qblur=0.5 / vbv_maxrate=50000 / vbv_bufsize=62500 / nal_hrd=none / filler=0 / ip_ratio=1.40 / pb_ratio=1.30 / aq=1:1.00
Язык : Russian
Default : Да
Forced : Нет
Аудио
Идентификатор : 2
Формат : AC-3
Формат/Информация : Audio Coding 3
Расширение режима : CM (complete main)
Параметр Endianness формата : Big
Идентификатор кодека : A_AC3
Продолжительность : 1 ч. 36 м.
Вид битрейта : Постоянный
Битрейт : 384 Кбит/сек
Каналы : 6 каналов
Расположение каналов : Front: L C R, Side: L R, LFE
Частота : 48,0 КГц
Частота кадров : 31,250 кадров/сек (1536 spf)
Метод сжатия : С потерями
Размер потока : 264 Мбайт (11%)
Заголовок : iTunes Russia
Язык : Russian
Default : Да
Forced : Нет
Меню
00:00:00.000 : ru:Chapter 01
00:06:07.840 : ru:Chapter 02
00:11:58.520 : ru:Chapter 03
00:17:39.400 : ru:Chapter 04
00:23:36.160 : ru:Chapter 05
00:29:22.680 : ru:Chapter 06
00:34:44.080 : ru:Chapter 07
00:40:24.840 : ru:Chapter 08
00:45:47.160 : ru:Chapter 09
00:51:21.680 : ru:Chapter 10
00:57:08.520 : ru:Chapter 11
01:32:22.840 : ru:Chapter 12

Скриншоты

[Профиль]  [ЛС] 
Показать сообщения:    
Ответить на тему

Текущее время: 09-Дек 10:44

Часовой пояс: UTC + 3



Вы не можете начинать темы
Вы не можете отвечать на сообщения
Вы не можете редактировать свои сообщения
Вы не можете удалять свои сообщения
Вы не можете голосовать в опросах
Вы не можете прикреплять файлы к сообщениям
Вы не можете скачивать файлы