Ценный груз / Precious Cargo (2016) WEB-DL 720p | L

Ответить на тему
Статистика раздачи [Обновить пиров]
Качаю: [ 2 ]
Скачал: [ 87 ]
 
   
 
 
Автор
Сообщение

Тоха™ ®

Стаж: 8 лет 7 месяцев

Сообщений: 735

Откуда: N44°35'16.29" E033°30'28.48"

Создавать темы 23-Май-2016 20:47

[Цитировать] 

Информация о фильме
Название: Ценный груз
Оригинальное название: Precious Cargo
Год выхода: 2016
Жанр: боевик, триллер, драма, криминал
Режиссер: Макс Адамс
В ролях: Брюс Уиллис, Марк-Пол Госселаар, Клэр Форлани, Джон Бразертон, Дженна Б. Келли, Николас М. Лоб, Лидия Халл, Дэниэл Бернхард, Эшли Кирк, Тайлер Джон Олсон
О фильме: Босс преступной группировки пробует убежать от ответственности за ограбление, которое совершил другой вор.

Выпущено: Канада / Emmett Furla Oasis Films (EFO Films), Herrick Entertainment, Mann Made Films
Продолжительность: 01:29:57
Озвучивание: Любительское (многоголосное) [Parovoz Production]
Примечание: Релиз без рекламы.
Файл
Формат: MKV
Качество: WEB-DL 720p
Видео: MPEG-4 AVC, 3911 kb/s, 1280x530
Аудио: Russian: AC3, 192 kb/s (2 ch) / English: AC3, 384 kb/s (6 ch)
Субтитры: English

MI

Format : Matroska
Format version : Version 2
File size : 2.88 GiB
Duration : 1h 29mn
Overall bit rate : 4 578 Kbps
Encoded date : UTC 2016-05-17 10:29:17
Writing application : mkvmerge v7.8.0 ('River Man') 32bit built on Apr 3 2015 12:11:22
Writing library : libebml v1.3.1 + libmatroska v1.4.2
Video
ID : 1
Format : AVC
Format/Info : Advanced Video Codec
Format profile : [email protected]
Format settings, CABAC : No
Format settings, ReFrames : 2 frames
Codec ID : V_MPEG4/ISO/AVC
Duration : 1h 29mn
Bit rate : 3 911 Kbps
Width : 1 280 pixels
Height : 530 pixels
Display aspect ratio : 2.40:1
Frame rate mode : Constant
Frame rate : 23.976 fps
Color space : YUV
Chroma subsampling : 4:2:0
Bit depth : 8 bits
Scan type : Progressive
Bits/(Pixel*Frame) : 0.240
Stream size : 2.46 GiB (85%)
Language : English
Default : Yes
Forced : No
Color range : Limited
Color primaries : BT.709
Transfer characteristics : BT.709
Matrix coefficients : BT.709
Audio #1
ID : 2
Format : AC-3
Format/Info : Audio Coding 3
Mode extension : CM (complete main)
Format settings, Endianness : Big
Codec ID : A_AC3
Duration : 1h 29mn
Bit rate mode : Constant
Bit rate : 192 Kbps
Channel(s) : 2 channels
Channel positions : Front: L R
Sampling rate : 48.0 KHz
Bit depth : 16 bits
Compression mode : Lossy
Stream size : 124 MiB (4%)
Language : Russian
Default : Yes
Forced : No
Audio #2
ID : 3
Format : AC-3
Format/Info : Audio Coding 3
Mode extension : CM (complete main)
Format settings, Endianness : Big
Codec ID : A_AC3
Duration : 1h 29mn
Bit rate mode : Constant
Bit rate : 384 Kbps
Channel(s) : 6 channels
Channel positions : Front: L C R, Side: L R, LFE
Sampling rate : 48.0 KHz
Bit depth : 16 bits
Compression mode : Lossy
Stream size : 247 MiB (8%)
Language : English
Default : No
Forced : No
Text
ID : 4
Format : UTF-8
Codec ID : S_TEXT/UTF8
Codec ID/Info : UTF-8 Plain Text
Language : English
Default : No
Forced : No
Menu
00:00:00.000 : en:1
00:08:59.000 : en:2
00:16:56.000 : en:3
00:25:44.000 : en:4
00:32:46.000 : en:5
00:42:14.000 : en:6
00:52:31.000 : en:7
01:02:06.000 : en:8
01:11:09.000 : en:9
01:18:22.000 : en:10
01:25:54.000 : en:11

Скриншоты




[Профиль]  [ЛС] 
Похожие темы
Форум Тема Автор Размер
Зарубежное кино Лекарь: Ученик Авиценны / The Physician (Филипп Штёльцль) [2013 г., драма, приключения, HDRip] Fadar 2,74 GB
Показать сообщения:    
Ответить на тему

Текущее время: 03-Дек 20:40

Часовой пояс: UTC + 3



Вы не можете начинать темы
Вы не можете отвечать на сообщения
Вы не можете редактировать свои сообщения
Вы не можете удалять свои сообщения
Вы не можете голосовать в опросах
Вы не можете прикреплять файлы к сообщениям
Вы не можете скачивать файлы