13 часов: Тайные солдаты Бенгази / 13 Hours: The Secret Soldiers of Benghazi (2016) BDRip 720p | D | Line

Ответить на тему
Статистика раздачи [Обновить пиров]
Скачал: [ 40 ]
 
   
 
 
Автор
Сообщение

Тоха™ ®

Стаж: 8 лет 7 месяцев

Сообщений: 735

Откуда: N44°35'16.29" E033°30'28.48"

Создавать темы 26-Май-2016 09:14

[Цитировать] 


13 часов: Тайные солдаты Бенгази / 13 Hours: The Secret Soldiers of Benghazi
Страна: США
Производство: 3 Arts Entertainment, Dune Films, Latina Pictures, Paramount Pictures
Год выпуска: 2016
Жанр: боевик, триллер, драма, военный
Продолжительность: 02:24:49
Режиссер: Майкл Бэй
Авторы сценария: Чак Хоган, Митчелл Зукофф
В ролях: Джон Красински, Джеймс Бэдж Дэйл, Пабло Шрайбер, Дэвид Денман, Доминик Фумуса, Макс Мартини, Алексия Бальер, Дэвид Костабайл
Описание: 2012 год. Бенгази, Ливия. Группа террористов решает «отпраздновать» события 11 сентября нападением на американское посольство. Шестерке бойцов из элитного спецотряда приказано вмешаться только в крайнем случае. Но когда под угрозой десятки жизней, долг и совесть берут верх над субординацией. И мужественные солдаты без колебаний вступают в бой с яростной группировкой боевиков. Бой, который для всех шестерых, скорее всего, станет последним...

Перевод: Профессиональный (полное дублирование) | чистый звук
Субтитры: нет-Качество: BDRip 720p
Формат: МКV
Видео кодек: AVC
Аудио кодек: АС3
Видео: 1280x536 (2.40:1), 23.976 fps, MPEG-4 AVC ~6 604 kbps avg
Аудио №1: 48.0 kHz, AC3 Dolby Digital, 2 ch, ~640 kbps | RUS
Аудио №2: 48.0 kHz, AC3 Dolby Digital, 6 ch, ~640 kbps | ENG
Бюджет: 000 000
Дата премьеры (мир): 12 января 2016
Дата премьеры (РФ): 28 января 2016, «Централ Партнершип»
релиз на DVD, Blu-Ray: 12 июля 2016, «Новый Диск»
ПРИМЕЧАНИЕ: ПРИСУТСТВУЕТ РЕКЛАМА!

Media Info

General
Unique ID : 248839354521955255533901312972653939270 (0xBB34B76767A2F721A1B2812216114A46)
Format : Matroska
Format version : Version 4 / Version 2
Overall bit rate mode : Constant
Overall bit rate : 8 044 Kbps
Encoded date : UTC 2016-05-25 22:18:23
Writing application : mkvmerge v8.8.0 ('Wind at my back') 64bit
Writing library : libebml v1.3.3 + libmatroska v1.4.4
DURATION : 00:00:46.240000000
NUMBER_OF_FRAMES : 1445
NUMBER_OF_BYTES : 3699200
_STATISTICS_WRITING_APP : mkvmerge v8.8.0 ('Wind at my back') 64bit
_STATISTICS_WRITING_DATE_UTC : 2016-05-25 22:18:23
Video
ID : 1
Format : AVC
Format/Info : Advanced Video Codec
Format profile : [email protected]
Format settings, CABAC : Yes
Format settings, ReFrames : 12 frames
Codec ID : V_MPEG4/ISO/AVC
Bit rate mode : Constant
Bit rate : 6 604 Kbps
Nominal bit rate : 7 000 Kbps
Width : 1 280 pixels
Height : 536 pixels
Display aspect ratio : 2.40:1
Frame rate mode : Constant
Frame rate : 23.976 fps
Standard : Component
Color space : YUV
Chroma subsampling : 4:2:0
Bit depth : 8 bits
Scan type : Progressive
Bits/(Pixel*Frame) : 0.401
Stream size : 36.4 MiB (82%)
Language : English
Default : Yes
Forced : No
Color range : Limited
Color primaries : BT.709
Transfer characteristics : BT.709
Matrix coefficients : BT.709
Audio #1
ID : 2
Format : AC-3
Format/Info : Audio Coding 3
Mode extension : CM (complete main)
Format settings, Endianness : Big
Codec ID : A_AC3
Duration : 46s 258ms
Bit rate mode : Constant
Bit rate : 640 Kbps
Channel(s) : 2 channels
Channel positions : Front: L R
Sampling rate : 48.0 KHz
Stream size : 3.53 MiB (8%)
Language : Russian
Default : Yes
Forced : Yes
Audio #2
ID : 3
Format : AC-3
Format/Info : Audio Coding 3
Mode extension : CM (complete main)
Format settings, Endianness : Big
Codec ID : A_AC3
Bit rate mode : Constant
Bit rate : 640 Kbps
Channel(s) : 6 channels
Channel positions : Front: L C R, Side: L R, LFE
Sampling rate : 48.0 KHz
Compression mode : Lossy
Stream size : 3.53 MiB (8%)
Language : English
Default : No
Forced : No

Скриншоты

[Профиль]  [ЛС] 
Показать сообщения:    
Ответить на тему

Текущее время: 04-Дек 06:55

Часовой пояс: UTC + 3



Вы не можете начинать темы
Вы не можете отвечать на сообщения
Вы не можете редактировать свои сообщения
Вы не можете удалять свои сообщения
Вы не можете голосовать в опросах
Вы не можете прикреплять файлы к сообщениям
Вы не можете скачивать файлы