Экипаж (Николай Лебедев) [2016 драма, приключения, триллер BDRip] Лицензия

Ответить на тему
Статистика раздачи [Обновить пиров]
Буду качать: [ 1 ]
Качаю: [ 5 ]
Скачал: [ 197 ]
 
   
 
 
Автор
Сообщение

mihis ®

Стаж: 2 года 1 месяц

Сообщений: 221

Создавать темы 31-Май-2016 00:10

[Цитировать] 

ЭкипажСтрана: Россия
Производство: Студия Тритэ
Год выпуска:
2016
Жанр: драма, приключения, триллер
Продолжительность:
02:17:10
Режиссер: Николай Лебедев
Авторы сценария:
Тихон Корнев, Николай Куликов, Николай Лебедев
В ролях: Данила Козловский, Владимир Машков, Агне Грудите, Сергей Кемпо, Катерина Шпица, Сергей Шакуров, Сергей Газаров, Елена Яковлева
Описание: История талантливого молодого летчика Алексея Гущина. Он не признает авторитетов, предпочитая поступать в соответствии с личным кодексом чести. За невыполнение абсурдного приказа его выгоняют из военной авиации, и только чудом он получает шанс летать на гражданских самолетах.
Гущин начинает свою летную жизнь сначала. Его наставник — командир воздушного судна — суровый и принципиальный Леонид Зинченко. Его коллега — второй пилот, неприступная красавица Александра. Отношения складываются непросто. Но на грани жизни и смерти, когда земля уходит из-под ног, вокруг — огонь и пепел и только в небе есть спасение, Гущин показывает все, на что он способен. Только вместе экипаж сможет совершить подвиг и спасти сотни жизней...

Перевод: Не требуется (оригинал) Лицензия
Субтитры: нет-Качество: BDRip
Формат: avi
Видео кодек: XviD
Аудио кодек: AC3
Видео: 720x304 (2.37:1), 24 fps, XviD build 50 ~1821 kbps avg, 0.35 bit/pixel
Аудио: 48 kHz, AC3 Dolby Digital, 3/2 (L,C,R,l,r) + LFE ch, ~448 kbps

MI

Общее
Полное имя : G:\Video\EkipaGG.2O16.O.BDRip.2.18GB.avi
Формат : AVI
Формат/Информация : Audio Video Interleave
Профиль формата : OpenDML
Размер файла : 2,18 Гбайт
Продолжительность : 2 ч. 17 м.
Общий поток : 2277 Кбит/сек
Программа кодирования : VirtualDubMod 1.5.10.2 (build 2540/release)
Библиотека кодирования : VirtualDubMod build 2540/release
Видео
Идентификатор : 0
Формат : MPEG-4 Visual
Профиль формата : Advanced [email protected]
Параметр BVOP формата : 2
Параметр QPel формата : Нет
Параметр GMC формата : Без точки перехода
Параметр матрицы формата : Выборочная
Идентификатор кодека : XVID
Идентификатор кодека/Подсказка : XviD
Продолжительность : 2 ч. 17 м.
Битрейт : 1817 Кбит/сек
Ширина : 720 пикселей
Высота : 304 пикселя
Соотношение сторон : 2,35:1
Частота кадров : 24,000 кадра/сек
Цветовое пространство : YUV
Субдискретизация насыщенности : 4:2:0
Битовая глубина : 8 бит
Тип развёртки : Прогрессивная
Метод сжатия : С потерями
Бит/(Пиксели*Кадры) : 0.346
Размер потока : 1,74 Гбайт (80%)
Библиотека кодирования : XviD 1.2.1 (UTC 2008-12-04)
Аудио
Идентификатор : 1
Формат : AC-3
Формат/Информация : Audio Coding 3
Расширение режима : CM (complete main)
Параметр Endianness формата : Big
Идентификатор кодека : 2000
Продолжительность : 2 ч. 17 м.
Вид битрейта : Постоянный
Битрейт : 448 Кбит/сек
Каналы : 6 каналов
Расположение каналов : Front: L C R, Side: L R, LFE
Частота : 48,0 КГц
Битовая глубина : 16 бит
Метод сжатия : С потерями
Размер потока : 440 Мбайт (20%)
Выравнивание : Разделение по промежуткам
Продолжительность промежутка : 42 мс. (1,00 видеокадр)
Время предзагрузки промежутка : 500 мс.
[Профиль]  [ЛС] 

Lance

Стаж: 8 лет 4 месяца

Сообщений: 50

Откуда: город-герой Севастополь

Создавать темы 02-Июн-2016 20:19 (спустя 2 дня 20 часов)

[Цитировать] 

Ничего выдающегося,сюжет бредовый ,игра Козловского и Машкова фильм украсила ,но не настолько, чтобы приблизить к советскому "экипажу" с Жжёновым.
[Профиль]  [ЛС] 

захарий

Стаж: 3 года 6 месяцев

Сообщений: 10

Создавать темы 04-Июн-2016 09:52 (спустя 1 день 13 часов)

[Цитировать] 

Мне фильм не понравился!!!
Очень слабо.
[Профиль]  [ЛС] 
Похожие темы
Форум Тема Автор Размер
Наше кино Экипаж (Николай Лебедев) [2016, драма, приключения, триллер, CamRip] Олег_SevStar 2,04 GB
Показать сообщения:    
Ответить на тему

Текущее время: 07-Дек 23:13

Часовой пояс: UTC + 3



Вы не можете начинать темы
Вы не можете отвечать на сообщения
Вы не можете редактировать свои сообщения
Вы не можете удалять свои сообщения
Вы не можете голосовать в опросах
Вы не можете прикреплять файлы к сообщениям
Вы не можете скачивать файлы