Дивергент, глава 3: За стеной / Allegiant (2016) WEB-DL 1080p | iTunes

Ответить на тему
Статистика раздачи [Обновить пиров]
Качаю: [ 5 ]
Скачал: [ 126 ]
 
   
 
 
Автор
Сообщение

Тоха™ ®

Стаж: 8 лет 7 месяцев

Сообщений: 741

Откуда: N44°35'16.29" E033°30'28.48"

Создавать темы 18-Июн-2016 08:29

[Цитировать] 

Информация о фильме
Название: Дивергент, глава 3: За стеной
Оригинальное название: Allegiant
Год выпуска: 2016
Страна: США
Жанр: фантастика, боевик, триллер, детектив, приключения-Перевод: Дубляж - [iTunes]
Продолжительность: 02:00:20-Режиссер: Роберт Швентке
В ролях: Шейлин Вудли (Tris), Тео Джеймс (Four), Энсел Элгорт (Caleb), Зои Кравиц (Christina), Майлз Теллер (Peter), Джефф Дэниелс (David), Наоми Уоттс (Evelyn), Мэгги Кью (Tori), Билл Скарсгард (Matthew), Кейнан Лонсдейл (Uriah), Надиа Хилкер (Nita), Октавия Спенсер (Johanna Reyes)-Описание:
Трис и Фор впервые покидают город и своих близких и оказываются в опасном мире за стеной, отделяющей Чикаго, где им открывается шокирующая правда.
Они должны быстро разобраться, кому можно доверять, так как битва, разгорающаяся за стенами города, угрожает всему человечеству. Чтобы выжить, Трис придется сделать непростой выбор между мужеством, верностью, любовью и необходимостью идти на жертвы.-Рейтинг:

MPAA: PG-13 - Детям до 13 лет просмотр не желателен-Качество: WEB-DL 1080p
Формат: MKV
Видео: AVC, 1920x1080 (16:9), 5014 kbps, 24 fps, 0,101 bpp
Аудио: русский / AC3 / 5.1 / 48 kHz / 384 kbps / 16 bit |Дубляж, iTunes|
Семпл-Релиз от: -

ОтчетМедиаИнфо

General
Unique ID : 230647478368628320691401920298268677975 (0xAD8516A92A452CB1BF338F2ACD3ED757)
Complete name : E:Allegiant.2016.1080p.WEB-DL.Rus.HDCLUB.mkv
Format : Matroska
Format version : Version 2
File size : 4.63 GiB
Duration : 2h 0mn
Overall bit rate : 5 508 Kbps
Movie name : Allegiant (2016) - Release for HDCLUB
Encoded date : UTC 2016-06-16 07:53:26
Writing application : mkvmerge v3.4.0 ('Rapunzel') built on May 15 2010 09:38:20
Writing library : libebml v0.8.0 + libmatroska v0.9.0
Video
ID : 1
Format : AVC
Format/Info : Advanced Video Codec
Format profile : [email protected]
Format settings, CABAC : Yes
Format settings, ReFrames : 4 frames
Codec ID : V_MPEG4/ISO/AVC
Duration : 2h 0mn
Bit rate : 5 015 Kbps
Width : 1 920 pixels
Height : 1 080 pixels
Display aspect ratio : 16:9
Frame rate : 24.000 fps
Color space : YUV
Chroma subsampling : 4:2:0
Bit depth : 8 bits
Scan type : Progressive
Bits/(Pixel*Frame) : 0.101
Stream size : 4.22 GiB (91%)
Title : Allegiant (2016) - Release for HDCLUB
Language : English
Default : Yes
Forced : No
Audio
ID : 2
Format : AC-3
Format/Info : Audio Coding 3
Mode extension : CM (complete main)
Codec ID : A_AC3
Duration : 2h 0mn
Bit rate mode : Constant
Bit rate : 384 Kbps
Channel(s) : 6 channels
Channel positions : Front: L C R, Side: L R, LFE
Sampling rate : 48.0 KHz
Bit depth : 16 bits
Compression mode : Lossy
Stream size : 331 MiB (7%)
Title : AC3 5.1 @ 384 kbps - DUB, iTunes
Language : Russian
Default : Yes
Forced : No

Скриншоты

[Профиль]  [ЛС] 

4x4

Стаж: 8 лет 6 месяцев

Сообщений: 14

Создавать темы 12-Авг-2016 22:35 (спустя 1 месяц 24 дня)

[Цитировать] 

дешевый бред
[Профиль]  [ЛС] 
Похожие темы
Форум Тема Автор Размер
Аудиокниги Конторович Александр - "Черные бушлаты. Диверсант из будущего" [Сергей Ларионов (babay7), 2010] Oldket 892 MB
Показать сообщения:    
Ответить на тему

Текущее время: 06-Дек 20:54

Часовой пояс: UTC + 3



Вы не можете начинать темы
Вы не можете отвечать на сообщения
Вы не можете редактировать свои сообщения
Вы не можете удалять свои сообщения
Вы не можете голосовать в опросах
Вы не можете прикреплять файлы к сообщениям
Вы не можете скачивать файлы