День независимости: Возрождение / Independence Day: Resurgence (2016) CAMRip | D

Ответить на тему
Статистика раздачи [Обновить пиров]
Буду качать: [ 1 ]
Качаю: [ 6 ]
Скачал: [ 142 ]
 
   
 
 
Автор
Сообщение

Тоха™ ®

Стаж: 8 лет 7 месяцев

Сообщений: 741

Откуда: N44°35'16.29" E033°30'28.48"

Создавать темы 01-Июл-2016 21:32

[Цитировать] 


День независимости: Возрождение / Independence Day: Resurgence
Страна: США
Производство: 20th Century Fox Film Corporation
Год выпуска: 2016
Жанр: фантастика, боевик, приключения
Продолжительность: 01:50:39
Режиссер: Роланд Эммерих
Авторы сценария: Николас Райт, Джеймс А. Вудс, Дин Девлин
В ролях: Майка Монро, Джои Кинг, Лиам Хемсворт, Джефф Голдблюм, Уильям Фихтнер, Джесси Ашер, Билл Пуллман, Вивика А. Фокс
Описание: Используя инопланетные технологии, жители Земли создали специальную программу по защите планеты. Но ничего не может нас спасти от нового, еще более разрушительного и масштабного инопланетного вторжения — только смелость нескольких героев, которые единственные могут спасти наш мир от уничтожения...

Перевод: Профессиональный (полное дублирование)
Субтитры: нет-Качество: CAMRip
Формат: АVI
Видео кодек: XviD
Аудио кодек: АС3
Видео: 720x384 (1.85:1), 30.000 fps, XviD ~1 496 kbps avg
Аудио: 48.0 kHz, AC3 Dolby Digital, 2/0 (L,R) ch, ~384 kbps
Дата премьеры (мир): 22 июня 2016
Дата премьеры (РФ): 23 июня 2016, «Двадцатый Век Фокс СНГ»

Доп. инфа: полный фильм!

Media Info

General
Format : AVI
Format/Info : Audio Video Interleave
Overall bit rate : 1 892 Kbps
Writing application : VirtualDubMod 1.5.10.3 | (build 2550/release)
Writing library : VirtualDub build 32507/release
Video
ID : 0
Format : xvid
Codec ID : xvid
Bit rate : 1 496 Kbps
Width : 720 pixels
Height : 384 pixels
Display aspect ratio : 1.85:1
Frame rate : 30.000 fps
Bits/(Pixel*Frame) : 0.180
Stream size : 19.6 MiB (79%)
Audio
ID : 1
Format : AC-3
Format/Info : Audio Coding 3
Mode extension : CM (complete main)
Format settings, Endianness : Big
Codec ID : 2000
Bit rate mode : Constant
Bit rate : 384 Kbps
Channel(s) : 2 channels
Channel positions : Front: L R
Sampling rate : 48.0 KHz
Compression mode : Lossy
Stream size : 5.02 MiB (20%)
Alignment : Split accross interleaves
Interleave, duration : 33 ms (1.00 video frame)
Interleave, preload duration : 500 ms

Скриншоты

[Профиль]  [ЛС] 

XStOrMX

Стаж: 6 лет 2 месяца

Сообщений: 66

Откуда: Севастополь

Создавать темы 03-Июл-2016 01:49 (спустя 1 день 4 часа)

[Цитировать] 

НА один раз, в кино не вижу смысла смотреть - без Вилла Смитта не то пальто((((
[Профиль]  [ЛС] 

BorisFen

Стаж: 8 лет 1 месяц

Сообщений: 9

Создавать темы 05-Июл-2016 20:18 (спустя 2 дня 18 часов)

[Цитировать] 

Фильм снят на уровне первой части.
Смотреть не рекомендую.
[Профиль]  [ЛС] 
Показать сообщения:    
Ответить на тему

Текущее время: 09-Дек 16:26

Часовой пояс: UTC + 3



Вы не можете начинать темы
Вы не можете отвечать на сообщения
Вы не можете редактировать свои сообщения
Вы не можете удалять свои сообщения
Вы не можете голосовать в опросах
Вы не можете прикреплять файлы к сообщениям
Вы не можете скачивать файлы