Кловерфилд, 10 / 10 Cloverfield Lane (2016) BDRip 720p от ExKinoRay | iTunes

Ответить на тему
Статистика раздачи [Обновить пиров]
Качаю: [ 7 ]
Скачал: [ 51 ]
 
   
 
 
Автор
Сообщение

Тоха™ ®

Стаж: 8 лет 7 месяцев

Сообщений: 735

Откуда: N44°35'16.29" E033°30'28.48"

Создавать темы 05-Июл-2016 19:51

[Цитировать] 


Информация о фильме
Название: Кловерфилд, 10
Оригинальное название: 10 Cloverfield Lane
Год выхода: 2016
Жанр: Ужасы, фантастика, триллер, драма, детектив
Режиссер: Дэн Трактенберг
В ролях: Джон Гудман, Мэри Элизабет Уинстэд, Джон Галлахер мл., Дуглас М. Гриффин, Сюзанн Крайер, Брэдли Купер, Сумали Монтано, Синди Хоган, Мат Ваиро
О фильме:
Человек порой попадает в такие сложные ситуации, что рядом нужен друг и защитник, и такой даже может быстро найтись, но не всегда он оказывается тем, за кого себя выдает. В похожей ситуацию оказалась и Мишель. Она попала в аварию и потеряла сознание, а очнулась уже в каком-то помещении. Рядом с ней находился мужчина, который утверждал, что спас ей жизнь, забрав в свой бункер. Выходить на поверхность не стоит, поскольку там произошла страшная авария, после которой жить на планете стало невозможно. Девушке сперва не хотелось верить в историю о химической атаке, но фермер говорил так убедительно, кроме того, в бункере был еще один парень, который пришел сюда сам, чтобы спастись, значит, это все правда. Мишель не прекращает задаваться вопросами о том, что же именно случилось. Ей бы хотелось выйти и посмотреть, но фермер запрещает это делать. Есть только маленькое окно, через которое можно увидеть улицу. В один из дней героиня через это окошко увидела женщину, которая приближалась к их укрытию и молила о помощи. Хозяин бункера запретил открывать двери, но появление человека снаружи дало повод Мишель снова засомневаться в правдивости его рассказа…

Страна: США
Студия: Bad Robot, Paramount Pictures, Spectrum Effects
Продолжительность: 01:43:18
Перевод: Дублированный | iTunes
Файл
Кодек: MPEG-4
Качество: BDRip 720p
Видео: 1280x534, 9052 Kbit/s, 23.976 fps
Звук:
Аудио #01: 48 kHz, AC3, 5.1, 384 Kbps | Дублированный, iTunes |AC3
Аудио #02: 48 kHz, AC3, 5.1, 640 kbps | Оригинал |AC3
Субтитры: Русские, английские
Релиз от: Автор релиза:

MI

General
Unique ID : 245813004579491268251283961226268869586 (0xB8EDDCD4EC3BC8C7A7DC08C4C74983D2)
Complete name : F:VideoMuxing10.Cloverfield.Lane.2016.BDRip.720p.ExKinoRay.mkv
Format : Matroska
Format version : Version 4 / Version 2
File size : 7.29 GiB
Duration : 1h 43mn
Overall bit rate : 10.1 Mbps
Movie name : 10.Cloverfield.Lane.2016.BDRip.720p.ExKinoRay
Encoded date : UTC 2016-06-28 00:49:19
Writing application : mkvmerge v8.3.0 ('Over the Horizon') 64bit
Writing library : libebml v1.3.1 + libmatroska v1.4.2
Video
ID : 1
Format : AVC
Format/Info : Advanced Video Codec
Format profile : [email protected]
Format settings, CABAC : Yes
Format settings, ReFrames : 12 frames
Codec ID : V_MPEG4/ISO/AVC
Duration : 1h 43mn
Bit rate : 9 052 Kbps
Width : 1 280 pixels
Height : 534 pixels
Display aspect ratio : 2.40:1
Frame rate mode : Constant
Frame rate : 23.976 (24000/1001) fps
Color space : YUV
Chroma subsampling : 4:2:0
Bit depth : 8 bits
Scan type : Progressive
Bits/(Pixel*Frame) : 0.552
Stream size : 6.55 GiB (90%)
Title : 10.Cloverfield.Lane.2016.BDRip.720p.ExKinoRay.***selezen***
Writing library : x264 core 146 r2538 121396c
Encoding settings : cabac=1 / ref=12 / deblock=1:-3:-3 / analyse=0x3:0x133 / me=umh / subme=10 / psy=1 / psy_rd=1.10:0.00 / mixed_ref=1 / me_range=32 / chroma_me=1 / trellis=2 / 8x8dct=1 / cqm=0 / deadzone=21,11 / fast_pskip=0 / chroma_qp_offset=-2 / threads=6 / lookahead_threads=2 / sliced_threads=0 / nr=0 / decimate=0 / interlaced=0 / bluray_compat=0 / constrained_intra=0 / bframes=8 / b_pyramid=2 / b_adapt=2 / b_bias=0 / direct=3 / weightb=1 / open_gop=0 / weightp=2 / keyint=240 / keyint_min=23 / scenecut=40 / intra_refresh=0 / rc_lookahead=60 / rc=2pass / mbtree=0 / bitrate=9052 / ratetol=1.0 / qcomp=0.60 / qpmin=0 / qpmax=69 / qpstep=4 / cplxblur=20.0 / qblur=0.5 / vbv_maxrate=50000 / vbv_bufsize=62500 / nal_hrd=none / filler=0 / ip_ratio=1.40 / pb_ratio=1.30 / aq=3:0.80
Language : English
Default : Yes
Forced : No
Audio #1
ID : 2
Format : AC-3
Format/Info : Audio Coding 3
Mode extension : CM (complete main)
Format settings, Endianness : Big
Codec ID : A_AC3
Duration : 1h 43mn
Bit rate mode : Constant
Bit rate : 384 Kbps
Channel(s) : 6 channels
Channel positions : Front: L C R, Side: L R, LFE
Sampling rate : 48.0 KHz
Frame rate : 31.250 fps (1536 spf)
Compression mode : Lossy
Stream size : 284 MiB (4%)
Title : DUB [iTunes]
Language : Russian
Default : Yes
Forced : No
Audio #2
ID : 3
Format : AC-3
Format/Info : Audio Coding 3
Mode extension : CM (complete main)
Format settings, Endianness : Big
Codec ID : A_AC3
Duration : 1h 43mn
Bit rate mode : Constant
Bit rate : 640 Kbps
Channel(s) : 6 channels
Channel positions : Front: L C R, Side: L R, LFE
Sampling rate : 48.0 KHz
Frame rate : 31.250 fps (1536 spf)
Compression mode : Lossy
Stream size : 474 MiB (6%)
Title : Original
Language : English
Default : No
Forced : No
Text #1
ID : 4
Format : UTF-8
Codec ID : S_TEXT/UTF8
Codec ID/Info : UTF-8 Plain Text
Duration : 1h 32mn
Bit rate : 53 bps
Count of elements : 748
Stream size : 36.6 KiB (0%)
Title : Full
Language : Russian
Default : No
Forced : No
Text #2
ID : 5
Format : UTF-8
Codec ID : S_TEXT/UTF8
Codec ID/Info : UTF-8 Plain Text
Duration : 1h 32mn
Bit rate : 36 bps
Count of elements : 843
Stream size : 24.8 KiB (0%)
Title : Full
Language : English
Default : No
Forced : No
Text #3
ID : 6
Format : UTF-8
Codec ID : S_TEXT/UTF8
Codec ID/Info : UTF-8 Plain Text
Duration : 1h 36mn
Bit rate : 40 bps
Count of elements : 1063
Stream size : 28.5 KiB (0%)
Title : SDH
Language : English
Default : No
Forced : No
Menu
00:00:00.000 : en:Chapter 1
00:05:55.605 : en:Chapter 2
00:14:52.517 : en:Chapter 3
00:19:18.157 : en:Chapter 4
00:24:11.992 : en:Chapter 5
00:32:21.940 : en:Chapter 6
00:42:59.243 : en:Chapter 7
00:47:47.740 : en:Chapter 8
00:53:37.089 : en:Chapter 9
00:57:00.626 : en:Chapter 10
01:03:10.745 : en:Chapter 11
01:11:20.193 : en:Chapter 12
01:15:49.420 : en:Chapter 13
01:24:21.265 : en:Chapter 14
01:28:19.085 : en:Chapter 15
01:37:31.512 : en:Chapter 16

Скриншоты

[Профиль]  [ЛС] 
Показать сообщения:    
Ответить на тему

Текущее время: 03-Дек 22:41

Часовой пояс: UTC + 3



Вы не можете начинать темы
Вы не можете отвечать на сообщения
Вы не можете редактировать свои сообщения
Вы не можете удалять свои сообщения
Вы не можете голосовать в опросах
Вы не можете прикреплять файлы к сообщениям
Вы не можете скачивать файлы