Судная ночь 3 / The Purge: Election Year (2016) BDRip 720p от New-Team | iTunes

Ответить на тему
Статистика раздачи [Обновить пиров]
Качаю: [ 7 ]
Скачал: [ 22 ]
 
   
 
 
Автор
Сообщение

Тоха™ ®

Стаж: 8 лет 7 месяцев

Сообщений: 741

Откуда: N44°35'16.29" E033°30'28.48"

Создавать темы 26-Сен-2016 12:12

[Цитировать] 


Информация о фильме
Название: Судная ночь 3
Оригинальное название: The Purge: Election Year
Страна: США, Франция
Студия: Blumhouse Productions, Platinum Dunes, Universal Pictures, Why Not Productions
Жанр: ужасы, фантастика, боевик, триллер
Год выпуска: 2016
Продолжительность: 01:48:28
Перевод: Профессиональный (дублированный) iTunes
Cубтитры: английские
Оригинальная аудиодорожка: английский
Режиссер: Джеймс ДеМонако / James DeMonaco
В ролях: Фрэнк Грилло, Элизабет Митчелл, Майкелти Уильямсон, Джозеф Джулиан Сория, Бетти Гэбриел, Терри Серпико, Эдвин Ходж, Кайл Сикор, Бэрри Нолан, Лиза Колон-Зайас
Описание: Добро пожаловать в идеальное будущее, в котором Судная ночь превратилась в международный тренд. Туристы со всего мира прибывают в аэропорты Америки: ведь всего лишь раз в году здесь позволено все, главное — дожить до рассвета.

Тип релиза: BDRip 720p
Контейнер: MKV
Видео: MPEG-4 AVC, 7346 Кбит/с, 1280x534, 23,976 fps
Аудио: Rus, AC3, 384 kb/s (6 ch), 48 kHz
Аудио 2: Eng, DTS, 1510 kb/s (6 ch), 48 kHz
Формат субтитров: softsub (SRT)
Раздача от:

MediaInfo

x264 [info]: frame I:1199 Avg QP:14.40 size:119883
x264 [info]: frame P:35659 Avg QP:15.91 size: 57793
x264 [info]: frame B:119647 Avg QP:17.62 size: 32927
Format : Matroska
Format version : Version 4 / Version 2
File size : 7.16 GiB
Duration : 1h 48mn
Overall bit rate : 9 426 Kbps
Movie name : Судная ночь 3. (Tonik)
Encoded date : UTC 2016-09-22 15:41:42
Writing application : mkvmerge v7.1.0 ('Good Love') 64bit built on Jul 27 2014 13:06:55
Writing library : libebml v1.3.0 + libmatroska v1.4.1
_STATISTICS_WRITING_APP : mkvmerge v7.1.0 ('Good Love') 64bit built on Jul 27 2014 13:06:55
_STATISTICS_WRITING_DATE_UTC : 2016-09-22 15:41:42
_STATISTICS_TAGS : BPS DURATION NUMBER_OF_FRAMES NUMBER_OF_BYTES
DURATION : 01:48:47.392000000
NUMBER_OF_FRAMES : 203981
NUMBER_OF_BYTES : 313314816
Video
ID : 1
Format : AVC
Format/Info : Advanced Video Codec
Format profile : [email protected]
Format settings, CABAC : Yes
Format settings, ReFrames : 12 frames
Codec ID : V_MPEG4/ISO/AVC
Duration : 1h 48mn
Bit rate : 7 346 Kbps
Width : 1 280 pixels
Height : 534 pixels
Display aspect ratio : 2.40:1
Frame rate mode : Constant
Frame rate : 23.976 fps
Color space : YUV
Chroma subsampling : 4:2:0
Bit depth : 8 bits
Scan type : Progressive
Bits/(Pixel*Frame) : 0.448
Stream size : 5.58 GiB (78%)
Writing library : x264 core 148 r2705kMod 3f5ed56
Encoding settings : cabac=1 / ref=12 / deblock=1:-3:-3 / analyse=0x3:0x133 / me=umh / subme=10 / psy=1 / fade_compensate=0.00 / psy_rd=1.00:0.00 / mixed_ref=1 / me_range=24 / chroma_me=1 / trellis=2 / 8x8dct=1 / cqm=0 / deadzone=21,11 / fast_pskip=0 / chroma_qp_offset=-2 / threads=56 / lookahead_threads=4 / sliced_threads=0 / nr=0 / decimate=0 / interlaced=0 / bluray_compat=0 / constrained_intra=0 / fgo=0 / bframes=8 / b_pyramid=2 / b_adapt=2 / b_bias=0 / direct=3 / weightb=1 / open_gop=0 / weightp=2 / keyint=250 / keyint_min=23 / scenecut=40 / intra_refresh=0 / rc_lookahead=60 / rc=crf / mbtree=0 / crf=17.0000 / qcomp=0.60 / qpmin=0 / qpmax=69 / qpstep=4 / vbv_maxrate=62500 / vbv_bufsize=78125 / crf_max=0.0 / nal_hrd=none / filler=0 / ip_ratio=1.30 / pb_ratio=1.20 / aq=3:0.75
Language : English
Default : Yes
Forced : No
Matrix coefficients : BT.709
_STATISTICS_WRITING_APP : mkvmerge v7.1.0 ('Good Love') 64bit built on Jul 27 2014 13:06:55
_STATISTICS_WRITING_DATE_UTC : 2016-09-22 15:41:42
_STATISTICS_TAGS : BPS DURATION NUMBER_OF_FRAMES NUMBER_OF_BYTES
DURATION : 01:48:47.563000000
NUMBER_OF_FRAMES : 156505
NUMBER_OF_BYTES : 6144229764
Audio #1
ID : 2
Format : AC-3
Format/Info : Audio Coding 3
Mode extension : CM (complete main)
Format settings, Endianness : Big
Codec ID : A_AC3
Duration : 1h 48mn
Bit rate mode : Constant
Bit rate : 384 Kbps
Channel(s) : 6 channels
Channel positions : Front: L C R, Side: L R, LFE
Sampling rate : 48.0 KHz
Bit depth : 16 bits
Compression mode : Lossy
Stream size : 299 MiB (4%)
Title : iTunes
Language : Russian
Default : Yes
Forced : No
Audio #2
ID : 3
Format : DTS
Format/Info : Digital Theater Systems
Mode : 16
Format settings, Endianness : Big
Codec ID : A_DTS
Duration : 1h 48mn
Bit rate mode : Constant
Bit rate : 1 509 Kbps
Channel(s) : 6 channels
Channel positions : Front: L C R, Side: L R, LFE
Sampling rate : 48.0 KHz
Bit depth : 24 bits
Compression mode : Lossy
Stream size : 1.15 GiB (16%)
Language : English
Default : No
Forced : No
Text #1
ID : 4
Format : UTF-8
Codec ID : S_TEXT/UTF8
Codec ID/Info : UTF-8 Plain Text
Language : English
Default : No
Forced : No
Text #2
ID : 5
Format : UTF-8
Codec ID : S_TEXT/UTF8
Codec ID/Info : UTF-8 Plain Text
Title : SDH
Language : English
Default : No
Forced : No
Menu
00:00:00.000 : en:00:00:00.000
00:05:47.347 : en:00:05:47.347
00:09:21.978 : en:00:09:21.978
00:17:15.618 : en:00:17:15.618
00:22:49.493 : en:00:22:49.493
00:28:43.180 : en:00:28:43.180
00:35:58.490 : en:00:35:58.490
00:41:50.508 : en:00:41:50.508
00:47:03.112 : en:00:47:03.112
00:53:30.374 : en:00:53:30.374
00:57:31.531 : en:00:57:31.531
01:02:20.820 : en:01:02:20.820
01:10:43.614 : en:01:10:43.614
01:17:32.731 : en:01:17:32.731
01:22:16.765 : en:01:22:16.765
01:27:03.093 : en:01:27:03.093
01:32:12.819 : en:01:32:12.819
01:36:17.480 : en:01:36:17.480
01:41:35.715 : en:01:41:35.715
01:43:36.752 : en:01:43:36.752

Скриншоты



Последний раз редактировалось: Тоха™ (2016-09-27 14:03), всего редактировалось 1 раз
[Профиль]  [ЛС] 

Russian_dim

Стаж: 2 года 3 месяца

Сообщений: 1

Создавать темы 26-Сен-2016 18:41 (спустя 6 часов)

[Цитировать] 

Скачал включил звук есть изображения нет черный экран
[Профиль]  [ЛС] 

hardius

Стаж: 6 лет 2 месяца

Сообщений: 528

Создавать темы 26-Сен-2016 18:59 (спустя 18 минут)

[Цитировать] 

1 часть норм, вторая - так, посмотрел и забыл, но это уже полнейший бред Image020
[Профиль]  [ЛС] 

Тоха™ ®

Стаж: 8 лет 7 месяцев

Сообщений: 741

Откуда: N44°35'16.29" E033°30'28.48"

Создавать темы 27-Сен-2016 14:28 (спустя 19 часов)

[Цитировать] 

727081Скачал включил звук есть изображения нет черный экран
а запятые хде?
[Профиль]  [ЛС] 
Похожие темы
Форум Тема Автор Размер
Зарубежное кино Судная ночь 2 / The Purge: Anarchy (Джеймс ДеМонако) (2014, триллер, криминал, боевик, WEB-DLRip) anatolyi100 1,46 GB
Показать сообщения:    
Ответить на тему

Текущее время: 10-Дек 06:00

Часовой пояс: UTC + 3



Вы не можете начинать темы
Вы не можете отвечать на сообщения
Вы не можете редактировать свои сообщения
Вы не можете удалять свои сообщения
Вы не можете голосовать в опросах
Вы не можете прикреплять файлы к сообщениям
Вы не можете скачивать файлы