Отряд самоубийц / Suicide Squad (2016) WEBRip 1080р | Звук с TS

Ответить на тему
Статистика раздачи [Обновить пиров]
Качаю: [ 7 ]
Скачал: [ 121 ]
 
   
 
 
Автор
Сообщение

Тоха™ ®

Стаж: 8 лет 7 месяцев

Сообщений: 735

Откуда: N44°35'16.29" E033°30'28.48"

Создавать темы 08-Окт-2016 15:06

[Цитировать] 


Отряд самоубийц / Suicide Squad
Страна: США
Производство: Warner Bros. Pictures, DC Entertainment, DC Comics, Dune Entertainment, Atlas Entertainment
Год выпуска: 2016
Жанр: фантастика, фэнтези, боевик, триллер, криминал
Продолжительность: 02:02:43
Режиссер: Дэвид Эйр
Авторы сценария: Дэвид Эйр, Джон Острандер
В ролях: Марго Робби, Уилл Смит, Джаред Лето, Джай Кортни, Кара Делевинь, Джей Эрнандес, Юэль Киннаман, Виола Дэвис, Скотт Иствуд
Описание: Правительство решает дать команде суперзлодеев шанс на искупление. Подвох в том, что их отправляют на миссию, где они, вероятнее всего, погибнут...

Перевод: Профессиональный (полное дублирование) | Звук с TS
Субтитры: китайские (вшитые)-Качество: WEBRip 1080р
Формат: МКV
Видео кодек: AVC
Аудио кодек: АС3
Видео: 1920x800 (2.40:1), 29.970 fps, MPEG-4 AVC ~6 343 kbps avg
Аудио: 48.0 kHz, AC3 Dolby Digital, 2/0 (L,R) ch, ~384 kbps
Дата премьеры (мир): 1 августа 2016
Дата премьеры (РФ): 4 августа 2016, «Каро-Премьер»

Media Info

General
Unique ID : 179123652693604633210712195687757801189 (0x86C1F5ECF747AA88BBD253F8110666E5)
Complete name : Otriyd.SamouUbiyTs.2O16.Dt.HDTV.1O8Op_KOSHARA.mkv
Format : Matroska
Format version : Version 2
File size : 5.88 GiB
Duration : 2h 2mn
Overall bit rate mode : Variable
Overall bit rate : 6 864 Kbps
Encoded date : UTC 2016-10-07 20:35:55
Writing application : mkvmerge v8.3.0 ('Over the Horizon') 64bit
Writing library : libebml v1.3.1 + libmatroska v1.4.2
Video #1
ID : 1
Format : AVC
Format/Info : Advanced Video Codec
Format profile : [email protected]
Format settings, CABAC : Yes
Format settings, ReFrames : 5 frames
Codec ID : V_MPEG4/ISO/AVC
Duration : 2h 2mn
Bit rate mode : Variable
Bit rate : 6 343 Kbps
Maximum bit rate : 6 900 Kbps
Width : 1 920 pixels
Height : 800 pixels
Display aspect ratio : 2.40:1
Frame rate mode : Constant
Frame rate : 29.970 fps
Standard : Component
Color space : YUV
Chroma subsampling : 4:2:0
Bit depth : 8 bits
Scan type : Progressive
Bits/(Pixel*Frame) : 0.138
Stream size : 5.44 GiB (92%)
Default : Yes
Forced : No
Color primaries : BT.709
Transfer characteristics : BT.709
Matrix coefficients : BT.709
Audio #2
ID : 2
Format : AC-3
Format/Info : Audio Coding 3
Mode extension : CM (complete main)
Format settings, Endianness : Big
Codec ID : A_AC3
Duration : 2h 2mn
Bit rate mode : Constant
Bit rate : 384 Kbps
Channel(s) : 2 channels
Channel positions : Front: L R
Sampling rate : 48.0 KHz
Bit depth : 16 bits
Compression mode : Lossy
Stream size : 337 MiB (6%)
Default : Yes
Forced : No

Скриншоты

[Профиль]  [ЛС] 

SevasPah

Стаж: 2 года 1 месяц

Сообщений: 4

Создавать темы 12-Окт-2016 18:15 (спустя 4 дня)

[Цитировать] 

Такой Хрени я еще не смотрел редкостное Г..НО
[Профиль]  [ЛС] 

Тоха™ ®

Стаж: 8 лет 7 месяцев

Сообщений: 735

Откуда: N44°35'16.29" E033°30'28.48"

Создавать темы 12-Окт-2016 18:45 (спустя 29 минут)

[Цитировать] 

727141Такой Хрени я еще не смотрел редкостное Г..НО
да и мы тут не Шопена слушаем)))
[Профиль]  [ЛС] 
Похожие темы
Форум Тема Автор Размер
Сериалы Отряд "Галактика" - Куча-Мала / Gatchaman Crowds [TV] [1 - 12 из 12] [приключения, комедия, фантастика] [HDTVRip] [RUS(int) Любительский] MANGA 4,51 GB
Показать сообщения:    
Ответить на тему

Текущее время: 04-Дек 09:05

Часовой пояс: UTC + 3



Вы не можете начинать темы
Вы не можете отвечать на сообщения
Вы не можете редактировать свои сообщения
Вы не можете удалять свои сообщения
Вы не можете голосовать в опросах
Вы не можете прикреплять файлы к сообщениям
Вы не можете скачивать файлы