Ментовские войны 10 (1-16 серии из 16) (Денис Скворцов) [2016 г., Боевик, детектив, SATRip]

Ответить на тему
Статистика раздачи [Обновить пиров]
Качаю: [ 19 ]
Скачал: [ 65 ]
 
   
 
 
Автор
Сообщение

mihis ®

Стаж: 2 года 1 месяц

Сообщений: 221

Создавать темы 17-Окт-2016 16:20

[Цитировать] 

Ментовские войны 1016 серий Год выпуска: 2016
Страна: Россия, Студия Панорама
Жанр: Боевик, детектив
Продолжительность: 16 x ~ 00:45:00
Перевод: Не требуется
Cубтитры: нет
Режиссер: Денис Скворцов
В ролях: Александр Устюгов, Дмитрий Быковский-Ромашов, Всеволод Цурило, Мария Иванова (IV), Ольга Павловец, Андрей Родимов, Роберт Студеновский, Дмитрий Мухамадеев, Сергей Евсеев, Андрей Кузнецов, Дмитрий Лебедев (III), Антон Гриценко, Денис Баканов, Михаил Новицкий, Максим Матвеев (II), Сергей Хомченков, Сергей Выборнов, Владимир Маслаков, Ксения Алексеева, Андрей Полищук, Сергей Гарусов, Виктор Янишевский, Стэнли Красовицки, Сергей Стукалов, Мария Фефилова, Антон Успенский, Антон Быстров, Константин Китанин, Рустам Насыров, Андрей Шаповал, Андрей Аладьин, Гавриил Федотов, Герасим Архипов, Елизавета Ковалева, Александр Лисицын, Сергей Лысов, Андрей Карако, Дмитрий Олейник, Никита Барсуков
Описание:Прошел год, как Шилова и его верных друзей перевели в отдел по борьбе с незаконным оборотом оружия. За это время сынишка Шилова и Максаковой немного подрос, Джексон более-менее наладил отношения с Юлией, а Арнаутов с Морозовой всё так же с нежностью глядят друг на друга. Панайотов скрылся в неизвестном направлении и не дает о себе знать, а Марианна, пытаясь хоть как-то наладить новую жизнь, после всех пережитых ужасов, с головой уходит в создание телевизионного ток-шоу «Горькая правда». Именно по приглашению Марианны Шилов должен принять участие в качестве эксперта на съемках сюжета программы. Но этим планам не суждено сбыться.
Группа неопознанных людей, ворвалась в студию и расстреляла всех, кто там был — режиссера, операторов, техперсонал, Марианну. Следователи связывают эти убийства с репортажем, над которым работала группа — скандал вокруг генерала Калюжного. Неприятности у генерала идут одна за другой с тех пор, как он перешел дорогу важной «шишке» из Минобороны — Волчанской. И хотя, расследование убийств теперь вне компетенции Шилова, оставаться в стороне он точно не собирается.

Качество: SATRip
Формат: AVI
Видео кодек: XviD
Аудио кодек: МР3
Видео: 720x400 (1.80:1), 25.000 fps, XviD MPEG-4 ~1807 kbps avg, 0.25 bit/pixel
Аудио: 48 kHz, MPEG Layer 3, 2 ch, ~192.00 kbps avg

MI

Общее
Полное имя : G:\Video\Ментовские войны 10 SATRip\Серия 01.avi
Формат : AVI
Формат/Информация : Audio Video Interleave
Размер файла : 640 Мбайт
Продолжительность : 44 м.
Общий поток : 2009 Кбит/сек
Программа кодирования : VirtualDubMod 1.5.10.3 (build 2550/release)
Библиотека кодирования : VirtualDubMod build 2550/release
Видео
Идентификатор : 0
Формат : MPEG-4 Visual
Профиль формата : Advanced [email protected]
Параметр BVOP формата : 2
Параметр QPel формата : Нет
Параметр GMC формата : Без точки перехода
Параметр матрицы формата : Default (MPEG)
Идентификатор кодека : XVID
Идентификатор кодека/Подсказка : XviD
Продолжительность : 44 м.
Битрейт : 1807 Кбит/сек
Ширина : 720 пикселей
Высота : 400 пикселей
Соотношение сторон : 16:9
Частота кадров : 25,000 кадров/сек
Цветовое пространство : YUV
Субдискретизация насыщенности : 4:2:0
Битовая глубина : 8 бит
Тип развёртки : Прогрессивная
Метод сжатия : С потерями
Бит/(Пиксели*Кадры) : 0.251
Размер потока : 576 Мбайт (90%)
Библиотека кодирования : XviD 73
Аудио
Идентификатор : 1
Формат : MPEG Audio
Версия формата : Version 1
Профиль формата : Layer 3
Режим : Joint stereo
Идентификатор кодека : 55
Идентификатор кодека/Подсказка : MP3
Продолжительность : 44 м.
Вид битрейта : Постоянный
Битрейт : 192 Кбит/сек
Каналы : 2 канала
Частота : 48,0 КГц
Метод сжатия : С потерями
Размер потока : 61,2 Мбайт (10%)
Выравнивание : Разделение по промежуткам
Продолжительность промежутка : 40 мс. (1,00 видеокадр)
Время предзагрузки промежутка : 500 мс.


Последний раз редактировалось: mihis (2016-10-27 17:30), всего редактировалось 9 раз(а)
[Профиль]  [ЛС] 

mihis ®

Стаж: 2 года 1 месяц

Сообщений: 221

Создавать темы 17-Окт-2016 16:46 (спустя 25 минут)

[Цитировать] 

Добавлена 2 серия
[Профиль]  [ЛС] 

mihis ®

Стаж: 2 года 1 месяц

Сообщений: 221

Создавать темы 18-Окт-2016 18:17 (спустя 1 день 1 час)

[Цитировать] 

Добавлены 3-4 серии
[Профиль]  [ЛС] 

mihis ®

Стаж: 2 года 1 месяц

Сообщений: 221

Создавать темы 19-Окт-2016 17:01 (спустя 22 часа)

[Цитировать] 

Добавлены 5-6 серии
[Профиль]  [ЛС] 

mihis ®

Стаж: 2 года 1 месяц

Сообщений: 221

Создавать темы 20-Окт-2016 17:10 (спустя 1 день)

[Цитировать] 

Добавлены 7-8 серии
Заменена 5 серия (устранены дефекты с выпадениями кадров)
[Профиль]  [ЛС] 

mihis ®

Стаж: 2 года 1 месяц

Сообщений: 221

Создавать темы 24-Окт-2016 17:19 (спустя 4 дня)

[Цитировать] 

Добавлены 9-10 серии
[Профиль]  [ЛС] 

mihis ®

Стаж: 2 года 1 месяц

Сообщений: 221

Создавать темы 25-Окт-2016 21:47 (спустя 1 день 4 часа)

[Цитировать] 

Добавлены 11-12 серии
[Профиль]  [ЛС] 

mihis ®

Стаж: 2 года 1 месяц

Сообщений: 221

Создавать темы 26-Окт-2016 17:02 (спустя 19 часов)

[Цитировать] 

Добавлены 13-14 серии
[Профиль]  [ЛС] 

mihis ®

Стаж: 2 года 1 месяц

Сообщений: 221

Создавать темы 27-Окт-2016 17:31 (спустя 1 день)

[Цитировать] 

Добавлены 15-16 серии
Заменена 10 серия (устранено небольшое выпадение кадров в начале серии)
[Профиль]  [ЛС] 
Похожие темы
Форум Тема Автор Размер
Книги 100 аргументов против штрафов ГАИ mmaximus 87 MB
Отечественные сериалы Ментовские войны (Полная Коллекция) (1-10 сезоны: 148 серий из 148 + Эпилог + 4 фильма) (Егор Абросимов, Павел Мальков, Денис Скворцов...) [2005-2016 г., Детектив, криминал SATRip,WEB-DLRip] mihis 88,84 GB
Отечественные сериалы Ментовские войны / Сезон: 8 / Серии: 1-16 из 16 (Денис Скворцов) [2014, Боевик, детектив, криминал, SATRip] Serega624 9,2 GB
Отечественные сериалы Ментовские войны 9 (1-16 серия из 16) (Денис Скворцов) [2015 г., Боевик, детектив, SATRip] mihis 9,96 GB
Показать сообщения:    
Ответить на тему

Текущее время: 05-Дек 13:29

Часовой пояс: UTC + 3



Вы не можете начинать темы
Вы не можете отвечать на сообщения
Вы не можете редактировать свои сообщения
Вы не можете удалять свои сообщения
Вы не можете голосовать в опросах
Вы не можете прикреплять файлы к сообщениям
Вы не можете скачивать файлы