Могучий Джо Янг / Mighty Joe Young (1998) WEB-DL 1080p | D, P, A

Ответить на тему
Статистика раздачи [Обновить пиров]
Нет
 
   
 
 
Автор
Сообщение

Гость ®

Создавать темы 13-Июл-2017 04:02

[ Опрос ]  [Цитировать] 

Информация о фильме
Название: Могучий Джо Янг
Оригинальное название: Mighty Joe Young
Год выхода: 1998
Жанр: фэнтези, боевик, триллер, приключения, семейный
Режиссер: Рон Андервуд
В ролях: Шарлиз Терон, Билл Пэкстон, Раде Шербеджия, Питер Фёрт, Дэвид Пэймер, Реджина Кинг, Роберт Уиздом, Навин Эндрюс, Лоуренс Прессман, Линда Перл
О фильме:
От его поступи содрогается земля. Его вид приводит в трепет любого. Его мощи позавидуют самые отчаянные силачи. Его неспособна удержать ни одна клетка в мире. Могучий Джо Янг не хочет войны, но он сможет постоять за себя и защитить своих друзей, кто бы ни встал на его пути…

Страна: США
Студия: RKO Pictures, Walt Disney Pictures
Продолжительность: 01:54:27
Перевод: Профессиональный (дублированный) iTunes + Профессиональный (многоголосый, закадровый) СТС + Авторский (одноголосый, закадровый) А.Кашкин
Файл
Формат: Matroska
Качество: WEB-DL 1080p
Видео: 1920x1040 at 23.976 fps, MPEG-4 AVC, ~8521 kbps avg
Аудио#1: Russian: 48 kHz, Advanced Audio Codec, 2/0 (L,R) ch, ~160 kbps |Дубляж, iTunes|
Аудио#2: Russian: 48 kHz, AC3 Dolby Digital, 2/0 (L,R) ch, ~192 kbps |Многоголосый закадровый, СТС|
Аудио#3: Russian: 48 kHz, AC3 Dolby Digital, 3/2 (L,C,R,l,r) + LFE ch, ~384 kbps |Авторский, А.Кашкин|
Аудио#4: English: 48 kHz, AC3 Dolby Digital, 3/2 (L,C,R,l,r) + LFE ch, ~384 kbps
Субтитры: Russian (Forced, Full), Ukrainian, English
***Сохранены и подписаны оригинальные главы.
***Релиз - spartanec163.

MediaInfo

Общее
Уникальный идентификатор : 179531839948534188889539566767320472872 (0x8710931C71D8A2878A95222C38821D28)
Полное имя : Mighty.Joe.Young.1998.1080p.WEB-DL.3xRus.Eng.mkv
Формат : Matroska
Версия формата : Version 4 / Version 2
Размер файла : 7,70 Гбайт
Продолжительность : 1 ч. 54 м.
Режим общего битрейта : Переменный
Общий поток : 9642 Кбит/сек
Название фильма : Release by spartanec163
Дата кодирования : UTC 2017-04-26 18:38:09
Программа кодирования : mkvmerge v8.3.0 ('Over the Horizon') 64bit
Библиотека кодирования : libebml v1.3.1 + libmatroska v1.4.2
Видео
Идентификатор : 1
Формат : AVC
Формат/Информация : Advanced Video Codec
Профиль формата : [email protected]
Параметр CABAC формата : Да
Параметр ReFrames формата : 4 кадра
Идентификатор кодека : V_MPEG4/ISO/AVC
Продолжительность : 1 ч. 54 м.
Вид битрейта : Переменный
Максимальный битрейт : 15,0 Мбит/сек
Ширина : 1920 пикселей
Высота : 1040 пикселей
Соотношение сторон : 1,85:1
Режим частоты кадров : Постоянный
Частота кадров : 23,976 кадра/сек
Цветовое пространство : YUV
Субдискретизация насыщенности : 4:2:0
Битовая глубина : 8 бит
Тип развёртки : Прогрессивная
Заголовок : WEB-DL 1080p (Amazon)
Язык : English
Default : Да
Forced : Нет
Основные цвета : BT.709
Характеристики трансфера : BT.709
Коэффициенты матрицы : BT.709
Аудио #1
Идентификатор : 2
Формат : AAC
Формат/Информация : Advanced Audio Codec
Профиль формата : LC
Идентификатор кодека : A_AAC
Продолжительность : 1 ч. 54 м.
Каналы : 2 канала
Расположение каналов : Front: L R
Частота : 48,0 КГц
Метод сжатия : С потерями
Заголовок : AAC 2.0 160Kbps (Дубляж - iTunes)
Язык : Russian
Default : Да
Forced : Нет
Аудио #2
Идентификатор : 3
Формат : AC-3
Формат/Информация : Audio Coding 3
Расширение режима : CM (complete main)
Параметр Endianness формата : Big
Идентификатор кодека : A_AC3
Продолжительность : 1 ч. 54 м.
Вид битрейта : Постоянный
Битрейт : 192 Кбит/сек
Каналы : 2 канала
Расположение каналов : Front: L R
Частота : 48,0 КГц
Битовая глубина : 16 бит
Метод сжатия : С потерями
Размер потока : 157 Мбайт (2%)
Заголовок : AC3 2.0 192Kbps (Профессиональный, многоголосый - СТС)
Язык : Russian
Default : Нет
Forced : Нет
Аудио #3
Идентификатор : 4
Формат : AC-3
Формат/Информация : Audio Coding 3
Расширение режима : CM (complete main)
Параметр Endianness формата : Big
Идентификатор кодека : A_AC3
Продолжительность : 1 ч. 54 м.
Вид битрейта : Постоянный
Битрейт : 384 Кбит/сек
Каналы : 6 каналов
Расположение каналов : Front: L C R, Side: L R, LFE
Частота : 48,0 КГц
Битовая глубина : 16 бит
Метод сжатия : С потерями
Размер потока : 314 Мбайт (4%)
Заголовок : AC3 5.1 384Kbps (Авторский, одноголосый - А. Кашкин)
Язык : Russian
Default : Нет
Forced : Нет
Аудио #4
Идентификатор : 5
Формат : AC-3
Формат/Информация : Audio Coding 3
Расширение режима : CM (complete main)
Параметр Endianness формата : Big
Идентификатор кодека : A_AC3
Продолжительность : 1 ч. 54 м.
Вид битрейта : Постоянный
Битрейт : 384 Кбит/сек
Каналы : 6 каналов
Расположение каналов : Front: L C R, Side: L R, LFE
Частота : 48,0 КГц
Битовая глубина : 16 бит
Метод сжатия : С потерями
Размер потока : 314 Мбайт (4%)
Заголовок : AC3 5.1 384Kbps (Оригинал)
Язык : English
Default : Нет
Forced : Нет
Текст #1
Идентификатор : 6
Формат : UTF-8
Идентификатор кодека : S_TEXT/UTF8
Идентификатор кодека/Информация : UTF-8 Plain Text
Заголовок : Forced (iTunes)
Язык : Russian
Default : Да
Forced : Нет
Текст #2
Идентификатор : 7
Формат : UTF-8
Идентификатор кодека : S_TEXT/UTF8
Идентификатор кодека/Информация : UTF-8 Plain Text
Заголовок : Full (iTunes)
Язык : Russian
Default : Нет
Forced : Нет
Текст #3
Идентификатор : 8
Формат : UTF-8
Идентификатор кодека : S_TEXT/UTF8
Идентификатор кодека/Информация : UTF-8 Plain Text
Заголовок : Full (iTunes)
Язык : Ukrainian
Default : Нет
Forced : Нет
Текст #4
Идентификатор : 9
Формат : UTF-8
Идентификатор кодека : S_TEXT/UTF8
Идентификатор кодека/Информация : UTF-8 Plain Text
Заголовок : Full (iTunes)
Язык : English
Default : Нет
Forced : Нет
Меню
00:00:00.000 : en:Program Start
00:01:00.686 : en:The Goodnight Song
00:10:56.072 : en:Looking For A Legend
00:15:27.426 : en:N'Gai Zamu
00:23:46.466 : en:Lucky To Be Alive
00:26:29.545 : en:Hide And Seek
00:32:42.334 : en:Not What He Seems
00:36:32.647 : en:Time To Trust
00:41:55.136 : en:A New Home
00:53:01.092 : en:Strasser's Justice
01:00:24.493 : en:Provoked
01:13:53.592 : en:Escape
01:19:42.774 : en:Jill Remembers
01:26:30.890 : en:Towards The Light
01:33:31.351 : en:Rush Into Danger
01:46:18.450 : en:End Credits

Скриншоты

 
Похожие темы
Форум Тема Автор Размер
HD Могучие рейнджеры / Power Rangers (2017) BDRip 1080p от New-Team & qqss44 | iTunes bot 7,52 GB
HD Могучие утята 3 / D3: The Mighty Ducks (1996) BDRemux 1080p | P bot 17,39 GB
Показать сообщения:    
Ответить на тему

Текущее время: 26-Сен 12:12

Часовой пояс: UTC + 3



Вы не можете начинать темы
Вы не можете отвечать на сообщения
Вы не можете редактировать свои сообщения
Вы не можете удалять свои сообщения
Вы не можете голосовать в опросах
Вы не можете прикреплять файлы к сообщениям
Вы не можете скачивать файлы