Перелом / Fracture (2007) WEB-DL 1080p | D, A | Open Matte

Ответить на тему
Статистика раздачи [Обновить пиров]
Нет
 
   
 
 
Автор
Сообщение

Гость ®

Создавать темы 17-Июл-2017 20:02

[ Опрос ]  [Цитировать] 

Информация о фильме
Название: Перелом
Оригинальное название: Fracture
Год выхода: 2007
Жанр: триллер, драма, криминал, детектив
Режиссер: Грегори Хоблит
В ролях: Энтони Хопкинс, Райан Гослинг, Дэвид Стрэтэйрн, Розамунд Пайк, Эмбет Дэвидц, Билли Бёрк, Клифф Кёртис, Фиона Шоу, Боб Гантон, Джош Стэмберг
О фильме:
Ассистент окружного прокурора оказывается втянутым в хитроумную игру в «кошки-мышки» человеком, который пытался убить свою жену, но избежал тюремного заключения благодаря нелепой бюрократической ошибке.

Страна: США, Германия
Студия: Castle Rock Entertainment, M7 Filmproduktion, New Line Cinema, Weinstock Productions
Продолжительность: 01:53:32
Перевод: Профессиональный (дублированный) Blu-ray EUR + Авторский (одноголосый, закадровый) Ю.Живов
Файл
Качество: WEB-DL 1080p
Формат: Matroska
Видео: 1920x1080 at 23.976 fps, MPEG-4 AVC, ~12000 kbps avg
Аудио#1: Russian: 48 kHz, AC3 Dolby Digital, 3/2 (L,C,R,l,r) + LFE ch, ~640 kbps |Дубляж, Blu-ray EUR|
Аудио#2: Russian: 48 kHz, AC3 Dolby Digital, 3/2 (L,C,R,l,r) + LFE ch, ~640 kbps |Авторский, Ю.Живов|
Аудио#3: English: 48 kHz, EAC3 Dolby Digital, 3/2 (L,C,R,l,r) + LFE ch, ~640 kbps
Субтитры: Russian, English (SDH)
***Сохранены оригинальные главы.
***Релиз - flaSI-I.

Знаете ли вы, что...

Когда Бичум сидит в своем офисе, за его спиной стоят коробки с надписями «Народ против Моргенто» и «Народ против Бопре». Крамер Моргенто — оператор фильма, Стивен Бопре — второй ассистент режиссера.
Уилли Бичум читает в больнице стихи известного американского детского писателя Доктора Сьюза.

MediaInfo

Общее
Уникальный идентификатор : 194592227746792428209252854712011520482 (0x9265198EDE7207709AA5BA1E1D5EF9E2)
Полное имя : Fracture 2007 Open Matte 1080p WEB-DL MPEG4 DD+5.1.mkv
Формат : Matroska
Версия формата : Version 4 / Version 2
Размер файла : 11,1 Гбайт
Продолжительность : 1 ч. 53 м.
Режим общего битрейта : Переменный
Общий поток : 14,0 Мбит/сек
Дата кодирования : UTC 2017-07-16 14:50:58
Программа кодирования : mkvmerge v13.0.0 ('The Juggler') 64bit
Библиотека кодирования : libebml v1.3.4 + libmatroska v1.4.5
Видео
Идентификатор : 1
Формат : AVC
Формат/Информация : Advanced Video Codec
Профиль формата : [email protected]
Параметр CABAC формата : Да
Параметр ReFrames формата : 4 кадра
Идентификатор кодека : V_MPEG4/ISO/AVC
Продолжительность : 1 ч. 53 м.
Вид битрейта : Переменный
Битрейт : 11,8 Мбит/сек
Максимальный битрейт : 15,0 Мбит/сек
Ширина : 1920 пикселей
Высота : 1080 пикселей
Соотношение сторон : 16:9
Режим частоты кадров : Постоянный
Частота кадров : 23,976 кадра/сек
Цветовое пространство : YUV
Субдискретизация насыщенности : 4:2:0
Битовая глубина : 8 бит
Тип развёртки : Прогрессивная
Бит/(Пиксели*Кадры) : 0.237
Размер потока : 9,36 Гбайт (84%)
Язык : English
Default : Да
Forced : Нет
Основные цвета : BT.709
Характеристики трансфера : BT.709
Коэффициенты матрицы : BT.709
Аудио #1
Идентификатор : 2
Формат : AC-3
Формат/Информация : Audio Coding 3
Расширение режима : CM (complete main)
Параметр Endianness формата : Big
Идентификатор кодека : A_AC3
Продолжительность : 1 ч. 53 м.
Вид битрейта : Постоянный
Битрейт : 640 Кбит/сек
Каналы : 6 каналов
Расположение каналов : Front: L C R, Side: L R, LFE
Частота : 48,0 КГц
Битовая глубина : 16 бит
Метод сжатия : С потерями
Размер потока : 520 Мбайт (5%)
Заголовок : DUB | BD | Universal Pictures Rus
Язык : Russian
Default : Да
Forced : Нет
Аудио #2
Идентификатор : 3
Формат : AC-3
Формат/Информация : Audio Coding 3
Расширение режима : CM (complete main)
Параметр Endianness формата : Big
Идентификатор кодека : A_AC3
Продолжительность : 1 ч. 53 м.
Вид битрейта : Постоянный
Битрейт : 640 Кбит/сек
Каналы : 6 каналов
Расположение каналов : Front: L C R, Side: L R, LFE
Частота : 48,0 КГц
Битовая глубина : 16 бит
Метод сжатия : С потерями
Размер потока : 520 Мбайт (5%)
Заголовок : AVO | Юрий Живов
Язык : Russian
Default : Нет
Forced : Нет
Аудио #3
Идентификатор : 4
Формат : E-AC-3
Формат/Информация : Audio Coding 3
Параметр Endianness формата : Big
Идентификатор кодека : A_EAC3
Продолжительность : 1 ч. 53 м.
Вид битрейта : Постоянный
Битрейт : 640 Кбит/сек
Каналы : 6 каналов
Расположение каналов : Front: L C R, Side: L R, LFE
Частота : 48,0 КГц
Метод сжатия : С потерями
Размер потока : 520 Мбайт (5%)
Заголовок : Original | WEB-DL
Язык : English
Default : Нет
Forced : Нет
Текст #1
Идентификатор : 5
Формат : UTF-8
Идентификатор кодека : S_TEXT/UTF8
Идентификатор кодека/Информация : UTF-8 Plain Text
Заголовок : Full | BD
Язык : Russian
Default : Нет
Forced : Нет
Текст #2
Идентификатор : 6
Формат : UTF-8
Идентификатор кодека : S_TEXT/UTF8
Идентификатор кодека/Информация : UTF-8 Plain Text
Заголовок : Original | SDH | BD
Язык : English
Default : Нет
Forced : Нет
Меню
00:00:00.000 : en:Opening Credits
00:07:10.847 : en:The Crime
00:12:22.742 : en:Negotiations
00:18:11.549 : en:Hotshot
00:26:42.893 : en:Mingling
00:32:41.543 : en:Evidence
00:37:43.678 : en:The Interview
00:43:38.324 : en:Testimony
00:52:11.712 : en:One More Chance
01:00:17.280 : en:Investigation
01:07:02.185 : en:White or Dark?
01:13:37.955 : en:Waiting
01:19:31.684 : en:Motion
01:28:27.928 : en:Finality
01:39:11.487 : en:Double Jeopardy
01:48:56.488 : en:End Credits

Скриншоты

 
Похожие темы
Форум Тема Автор Размер
Наше кино Елки 5 (Тимур Бекмамбетов, Вадим Перельман, Индар Джендубаев) [2016, Комедия, WEB-DL (1080p)] Олег_SevStar 3,02 GB
Отечественные сериалы Перелётные птицы [01-04 из 04] (2014) HDTVRip от Шкипер -=DoC(ToP)=-™ 1,42 GB
HD Переломный момент / Break Point (2014) WEB-DLRip 1080p от MediaClub | P bot 3,41 GB
Показать сообщения:    
Ответить на тему

Текущее время: 26-Сен 11:56

Часовой пояс: UTC + 3



Вы не можете начинать темы
Вы не можете отвечать на сообщения
Вы не можете редактировать свои сообщения
Вы не можете удалять свои сообщения
Вы не можете голосовать в опросах
Вы не можете прикреплять файлы к сообщениям
Вы не можете скачивать файлы