Переломный момент / Break Point (2014) WEB-DLRip 1080p от MediaClub | P

Ответить на тему
Статистика раздачи [Обновить пиров]
Нет
 
   
 
 
Автор
Сообщение

Создавать темы 24-Сен-2017 00:02

[Цитировать] 

Информация о фильме
Название: Переломный момент
Оригинальное название: Break Point
Год выхода: 2014
Жанр: Комедия, спорт
Режиссер: Джей Карас
В ролях: Джереми Систо, Дэвид Уолтон, Адам Дивайн, Джошуа Раш, Сай Амундсон, Сара Бэйли, Брэд Бенедикт, Маянк Бхаттер, Кристиан Капалик, Мо Коллинз
О фильме:
Джимми – 35-летний теннисист, карьера которого идет к закату. Не столько из-за возраста, сколько потому, что он все время пытается ссориться с судьями, соперниками и даже со своим напарником в парном разряде. И вот, когда от него отказывается очередной напарник, его отец предлагает взять на эту роль младшего брата, Ника, в прошлом уже игравшего в паре с Джимми. Но теперь Ник, если и тренируется, то только в свое удовольствие, так как работает учителем в школе. В школах наступила пора летних каникул, поэтому предложение отца не выглядит безнадежно. К этой парочке "приклеивается" один из учеников Ника, которому в летние каникулы некуда податься: папы нет, а мама давно сдала его на попечение бабушки. У мальчика не все ясно в плане самоидентификации, он интуитивно тянется к сильному мужчине, который мог бы стать ему примером.

Официальный сайт
Страна: США
Студия: Broad Green Pictures
Продолжительность: 01:30:47
Перевод: Профессиональный многоголосый закадровый
Файл
Кодек: h.264
Качество: WEB-DLRip 1080p
Видео: MPEG-4 AVC, 5120 Кбит/с, 1920x800, 24,000 кадр/с
Звук: Русский (AC3, 2 ch, 256 Кбит/с)
Субтитры: Нет
Семпл

MI

General
Unique ID : 187343803623939895120840691446985812592 (0x8CF11AA83AB0BA79891D1819628C6A70)
Complete name : D:uTorrentPerelomnyi.moment.2014.WEB-DLRip.1080p.MediaClub.mkv
Format : Matroska
Format version : Version 4 / Version 2
File size : 3.41 GiB
Duration : 1 h 30 min
Overall bit rate : 5 373 kb/s
Encoded date : UTC 2017-09-23 17:54:44
Writing application : mkvmerge v15.0.0 ('Duel with the Devil') 64-bit
Writing library : libebml v1.3.5 + libmatroska v1.4.5
Video
ID : 1
Format : AVC
Format/Info : Advanced Video Codec
Format profile : [email protected]
Format settings, CABAC : Yes
Format settings, ReFrames : 4 frames
Codec ID : V_MPEG4/ISO/AVC
Duration : 1 h 30 min
Bit rate : 5 120 kb/s
Width : 1 920 pixels
Height : 800 pixels
Display aspect ratio : 2.40:1
Frame rate mode : Constant
Frame rate : 24.000 FPS
Color space : YUV
Chroma subsampling : 4:2:0
Bit depth : 8 bits
Scan type : Progressive
Bits/(Pixel*Frame) : 0.139
Stream size : 3.24 GiB (95%)
Title : WEB-DLRip by Silverok
Writing library : x264 core 142
Encoding settings : cabac=1 / ref=3 / deblock=1:0:0 / analyse=0x3:0x113 / me=hex / subme=7 / psy=1 / psy_rd=1.00:0.00 / mixed_ref=1 / me_range=16 / chroma_me=1 / trellis=1 / 8x8dct=1 / cqm=0 / deadzone=21,11 / fast_pskip=1 / chroma_qp_offset=-2 / threads=36 / lookahead_threads=6 / sliced_threads=0 / nr=0 / decimate=1 / interlaced=0 / bluray_compat=0 / constrained_intra=0 / bframes=6 / b_pyramid=2 / b_adapt=1 / b_bias=0 / direct=1 / weightb=1 / open_gop=0 / weightp=2 / keyint=46 / keyint_min=24 / scenecut=0 / intra_refresh=0 / rc_lookahead=40 / rc=2pass / mbtree=1 / bitrate=5120 / ratetol=1.0 / qcomp=0.60 / qpmin=0 / qpmax=69 / qpstep=4 / cplxblur=20.0 / qblur=0.5 / vbv_maxrate=7680 / vbv_bufsize=20480 / nal_hrd=none / filler=0 / ip_ratio=1.40 / aq=1:1.00
Default : Yes
Forced : No
Audio
ID : 2
Format : AC-3
Format/Info : Audio Coding 3
Format settings, Endianness : Big
Codec ID : A_AC3
Duration : 1 h 30 min
Bit rate mode : Constant
Bit rate : 256 kb/s
Channel(s) : 2 channels
Channel positions : Front: L R
Sampling rate : 48.0 kHz
Frame rate : 31.250 FPS (1536 spf)
Bit depth : 16 bits
Compression mode : Lossy
Stream size : 166 MiB (5%)
Language : Russian
Service kind : Complete Main
Default : Yes
Forced : No

Скриншоты

Релиз от: | Silverok
 
Похожие темы
Форум Тема Автор Размер
Наше кино Елки 5 (Тимур Бекмамбетов, Вадим Перельман, Индар Джендубаев) [2016, Комедия, WEB-DL (1080p)] Олег_SevStar 3,02 GB
Отечественные сериалы Перелётные птицы [01-04 из 04] (2014) HDTVRip от Шкипер -=DoC(ToP)=-™ 1,42 GB
HD Перелом / Fracture (2007) WEB-DL 1080p | D, A | Open Matte Guest 11,11 GB
Показать сообщения:    
Ответить на тему

Текущее время: 17-Окт 20:10

Часовой пояс: UTC + 3



Вы не можете начинать темы
Вы не можете отвечать на сообщения
Вы не можете редактировать свои сообщения
Вы не можете удалять свои сообщения
Вы не можете голосовать в опросах
Вы не можете прикреплять файлы к сообщениям
Вы не можете скачивать файлы