Прогулка / The Walk (2015) BDRip 1080p | 3D-Video | HSBS | Лицензия

Ответить на тему
Статистика раздачи [Обновить пиров]
Скачал: [ 1 ]
 
   
 
 
Автор
Сообщение

Создавать темы 08-Окт-2017 20:02

[Цитировать] 

+ Прогулка / The Walk (2015) BDRip 720p
+ Прогулка / The Walk (2015) BDRip 1080p
+ Прогулка / The Walk (2015) BDRemux 1080p

Информация о фильме
Название: Прогулка
Оригинальное название: The Walk
Год выхода: 2015
Жанр: триллер, драма, приключения, биография
Режиссер: Роберт Земекис
В ролях: Джозеф Гордон-Левитт, Бен Кингсли, Стив Валентайн, Шарлотта Ле Бон, Джеймс Бэдж Дэйл, Бен Шварц, Бенедикт Сэмюэл, Мизинга Мвинга, Дэниэл Аррош, Джейсон Делайн
О фильме:
Вы боитесь высоты? А можете представить себя идущим по натянутому канату на высоте более 400м без всякой страховки? Потоки ветра обдувают вас, а внизу - город и тысячи взволнованных взглядов, устремленных вверх.
История о том, как французский канатоходец Филипп Пети отважился совершить легендарный трюк - пройти без страховки по канату, натянутому между небоскребами в Нью-Йорке.

Страна: США
Студия: ImageMovers, Mel's Cite du Cinema, Sony Pictures Entertainment (SPE), TriStar Productions
Продолжительность: 02:03:11
Перевод: Профессиональный (дублированный) Blu-ray EUR
Формат 3D: Anamorph SideBySide / Горизонтальная анаморфная стереопара
Порядок ракурсов: Левый ракурс первый
Файл
Формат: Matroska
Видео: 1920x1080 at 23.976 fps, [email protected], ~13400 kbps avg
Aудио#1: Russian: 48 kHz, AC3, 3/2 (L,C,R,l,r) + LFE ch, ~640.00 kbps avg |Дубляж, Blu-ray EUR|
Aудио#2: English: 48 kHz, DTS, 3/2 (L,C,R,l,r) + LFE ch, ~1509.00 kbps avg
Субтитры: Russian (Forced, iTunes), Russian, English (Forced, iTunes), English
***Сохранены оригинальные главы как на Blu-ray.
***Видеоряд - Fringe, сборка рипа - bog3417.

Знаете ли Вы, что...

Во время съёмок фильма актеры каждое воскресенье собирались вместе и смотрели фильмы Роберта Земекиса.
Джозеф Гордон-Левитт бегло говорит по-французски, но для фильма ему пришлось подтянуть его парижский акцент. Слушая Филиппа Пети, он также отточил франко-американский акцент канатоходца и перенял его манеру речи.
По словам режиссёра Роберта Земекиса, Джозеф Гордон-Левитт был единственным актёром, которого он когда-либо рассматривал на роль Филиппа Пети.
Роберт Земекис загорелся мечтой сделать этот фильм ещё 10 лет назад, когда ему в руки попала детская книга «Человек, который шел между башнями» («The Man Who Walked Between The Towers»).
Сцена с макетом башен близнецов является отсылкой к трилогии Роберта Земекиса «Назад в будущее».
В ходе восьмидневного семинара Филипп Пети лично обучал Джозефа Гордона-Левитта жонглированию и ходьбе по канату. К его окончанию актер мог сам идти по канату, расположенному на высоте 12 футов (3,6 м). Именно на такой высоте были отсняты сцены прогулки между зданиями Всемирного торгового центра.
Антенны на северной башне Всемирного торгового центра не было до 1978 года, а это четырьмя годами позже того времени, когда происходили описываемые в фильме события.
Когда два офицера пытаются схватить Филиппа за руку во время его «прогулки», в одном кадре они находятся буквально в шаге от края здания, в следующем кадре они оказываются гораздо дальше, чем были до этого.
1 августа 1974 года был четверг, в фильме же говорится, что это была среда.

MI

Общее
Уникальный идентификатор : 188800506283393257443437999320169762643 (0x8E09A7A4AFBAFC31B0419EB9EC40CF53)
Полное имя : The.Walk.2015.1080p.3D.BluRay.Half-SBS.DTS.x264-Fringe.mkv
Формат : Matroska
Версия формата : Version 3 / Version 2
Размер файла : 13,7 Гбайт
Продолжительность : 2 ч. 3 м.
Общий поток : 15,9 Мбит/сек
Название фильма : BLUBIRD
Дата кодирования : UTC 2016-01-27 17:21:09
Программа кодирования : mkvmerge v7.9.0 ('Birds') 64bit
Библиотека кодирования : libebml v1.3.1 + libmatroska v1.4.2
Видео
Идентификатор : 1
Формат : AVC
Формат/Информация : Advanced Video Codec
Профиль формата : [email protected]
MultiView_Count : 2
MultiView_Layout : Side by Side (left eye first)
Параметр CABAC формата : Да
Параметр ReFrames формата : 4 кадра
Идентификатор кодека : V_MPEG4/ISO/AVC
Продолжительность : 2 ч. 3 м.
Битрейт : 13,4 Мбит/сек
Ширина : 1920 пикселей
Высота : 1080 пикселей
Соотношение сторон : 16:9
Режим частоты кадров : Постоянный
Частота кадров : 23,976 кадра/сек
Цветовое пространство : YUV
Субдискретизация насыщенности : 4:2:0
Битовая глубина : 8 бит
Тип развёртки : Прогрессивная
Бит/(Пиксели*Кадры) : 0.270
Размер потока : 11,5 Гбайт (84%)
Библиотека кодирования : x264 core 146 r2538kMod 121396c
Настройки программы : cabac=1 / ref=4 / deblock=1:-3:-3 / analyse=0x3:0x133 / me=umh / subme=11 / psy=1 / fade_compensate=0.00 / psy_rd=1.05:0.00 / mixed_ref=1 / me_range=24 / chroma_me=1 / trellis=2 / 8x8dct=1 / cqm=0 / deadzone=21,11 / fast_pskip=1 / chroma_qp_offset=-2 / threads=12 / lookahead_threads=3 / sliced_threads=0 / nr=0 / decimate=0 / interlaced=0 / bluray_compat=0 / constrained_intra=0 / fgo=0 / bframes=10 / b_pyramid=2 / b_adapt=2 / b_bias=0 / direct=3 / weightb=1 / open_gop=0 / weightp=2 / keyint=250 / keyint_min=23 / scenecut=40 / intra_refresh=0 / rc=crf / mbtree=0 / crf=15.7000 / qcomp=0.65 / qpmin=0 / qpmax=69 / qpstep=4 / frame-packing=3 / ip_ratio=1.30 / pb_ratio=1.20 / aq=3:0.80 / zones=11592,13176,crf=14.5/14533,16237,crf=14.5/28405,30030,crf=14.5/42460,43036,crf=14.5/80051,83939,crf=14.5/86603,87539,crf=14.5/95027,96323,crf=14.5/96755,116987,crf=14.5
Язык : English
Default : Да
Forced : Нет
Аудио #1
Идентификатор : 2
Формат : AC-3
Формат/Информация : Audio Coding 3
Расширение режима : CM (complete main)
Параметр Endianness формата : Big
Идентификатор кодека : A_AC3
Продолжительность : 2 ч. 3 м.
Вид битрейта : Постоянный
Битрейт : 640 Кбит/сек
Каналы : 6 каналов
Расположение каналов : Front: L C R, Side: L R, LFE
Частота : 48,0 КГц
Метод сжатия : С потерями
Размер потока : 564 Мбайт (4%)
Язык : Russian
Default : Да
Forced : Нет
Аудио #2
Идентификатор : 3
Формат : DTS
Формат/Информация : Digital Theater Systems
Режим : 16
Параметр Endianness формата : Big
Идентификатор кодека : A_DTS
Продолжительность : 2 ч. 3 м.
Вид битрейта : Постоянный
Битрейт : 1509 Кбит/сек
Каналы : 6 каналов
Расположение каналов : Front: L C R, Side: L R, LFE
Частота : 48,0 КГц
Битовая глубина : 16 бит
Метод сжатия : С потерями
Размер потока : 1,30 Гбайт (10%)
Язык : English
Default : Нет
Forced : Нет
Текст #1
Идентификатор : 4
Формат : UTF-8
Идентификатор кодека : S_TEXT/UTF8
Идентификатор кодека/Информация : UTF-8 Plain Text
Заголовок : Forced
Язык : Russian
Default : Да
Forced : Нет
Текст #2
Идентификатор : 5
Формат : UTF-8
Идентификатор кодека : S_TEXT/UTF8
Идентификатор кодека/Информация : UTF-8 Plain Text
Язык : Russian
Default : Нет
Forced : Нет
Текст #3
Идентификатор : 6
Формат : UTF-8
Идентификатор кодека : S_TEXT/UTF8
Идентификатор кодека/Информация : UTF-8 Plain Text
Заголовок : Forced
Язык : English
Default : Нет
Forced : Нет
Текст #4
Идентификатор : 7
Формат : UTF-8
Идентификатор кодека : S_TEXT/UTF8
Идентификатор кодека/Информация : UTF-8 Plain Text
Язык : English
Default : Нет
Forced : Нет
Меню
00:00:00.000 : en:Chapter 1
00:05:15.773 : en:Chapter 2
00:10:06.147 : en:Chapter 3
00:14:51.807 : en:Chapter 4
00:23:30.867 : en:Chapter 5
00:32:22.148 : en:Chapter 6
00:41:46.879 : en:Chapter 7
00:46:32.414 : en:Chapter 8
00:55:38.460 : en:Chapter 9
01:04:37.373 : en:Chapter 10
01:11:17.314 : en:Chapter 11
01:17:40.405 : en:Chapter 12
01:24:37.072 : en:Chapter 13
01:33:46.746 : en:Chapter 14
01:42:21.927 : en:Chapter 15
01:50:29.539 : en:Chapter 16

Скриншоты

 
Похожие темы
Форум Тема Автор Размер
Аудиокниги Кинг Стивен - "Долгая прогулка" [the-unknown, 2013] Oldket 504 MB
Трейлеры и дополнительные материалы Прогулка / The Walk (2015) WEBRip 1080p | Трейлер Guest 143 MB
Зарубежное кино Прогулка / The Walk (2015) WEBRip | Чистый звук -=DoC(ToP)=-™ 1,46 GB
Трейлеры и дополнительные материалы Прогулка по Миссисипи / Mississippi Grind (2015) WEBRip 1080p | Трейлер Guest 33 MB
Зарубежное кино Прогулка среди могил / A Walk Among the Tombstones (2014) WEBRip ЗвЕрЁк 1,37 GB
Показать сообщения:    
Ответить на тему

Текущее время: 18-Окт 21:32

Часовой пояс: UTC + 3



Вы не можете начинать темы
Вы не можете отвечать на сообщения
Вы не можете редактировать свои сообщения
Вы не можете удалять свои сообщения
Вы не можете голосовать в опросах
Вы не можете прикреплять файлы к сообщениям
Вы не можете скачивать файлы