Аватар / Avatar (2009) BDRip-HEVC 1080p от HEVC CLUB | Extended Collector's Edition | D

Ответить на тему
Статистика раздачи [Обновить пиров]
Нет
 
   
 
 
Автор
Сообщение

Создавать темы 12-Окт-2017 06:02

[Цитировать] 

Название: Аватар [Расширенное коллекционное издание]
Оригинальное название: Avatar [Extended Collector's Edition]-Год выпуска: 2009
Страна: США, Великобритания
Жанр: фантастика, боевик, драма, приключения
Продолжительность: 02:58:09
Перевод: Дублированный
Субтитры: Russian, English-В ролях: Сэм Уортингтон, Зои Салдана, Сигурни Уивер, Стивен Лэнг, Мишель Родригес, Джованни Рибизи, Джоэль Мур, Си Си Эйч Паундер, Уэс Студи, Лас Алонсо
Режиссёр: Джеймс Кэмерон-Описание: Джейк Салли - бывший морской пехотинец, прикованный к инвалидному креслу. Несмотря на немощное тело, Джейк в душе по-прежнему остается воином. Он получает задание совершить путешествие в несколько световых лет к базе землян на планете Пандора, где корпорации добывают редкий минерал, имеющий огромное значение для выхода Земли из энергетического кризиса.-Качество: BDRip-HEVC 1080p
Формат: MKV
Видео кодек: [email protected]
Аудио кодек: DTS, AAC
Видео: 1920x1078, 23,976 fps, HEVC, ~9673 kbps, 10bit
Аудио: Rus, 48 kHz/24-bit, DTS 5.1, ~768 kbps | Дублированный
Аудио: Ukr, 48 kHz/16-bit, AAC 2.0, ~128 kbps | Дублированный
Аудио: Eng, 48 kHz/24-bit, DTS 5.1, ~768 kbps | Оригинал
Навигация по главам: Присутствует-Автор рипа: Alex_A
- - -

Внимание!

- H.265/HEVC (High Efficiency Video Coding) - это новый стандарт кодирования видео.
- Стандарт H.265/HEVC является логическим продолжением стандарта H.264/AVC (Advanced Video Coding), и характеризуется более эффективными алгоритмами сжатия, а также поддержкой высокого разрешения вплоть до 8K UHD (8192x4320). Первая версия стандарта H.265 была опубликована в начале 2013 года.
- Рипы в фомате HEVC поддерживается не всеми аппаратными проигрывателями.
- Для корректного воспроизведения может потребоваться обновление ПО.
- Владельцам несовместимого железа просьба не беспокоить, есть альтернативные релизы.

Медиаинфо

General
Unique ID : 226119679370114918181502117674105900571 (0xAA1D10EF4C91DF80A04591DDADFB0E1B)
Complete name : d:HEVCAvatar (2009) Extended Collector's EditionAvatar.2009.Extended.Collectors.Edition.1080p_HEVCCLUB.mkv
Format : Matroska
Format version : Version 4 / Version 2
File size : 14.1 GiB
Duration : 2 h 58 min
Overall bit rate : 11.3 Mb/s
Movie name : Avatar (2009) Extended Collector's Edition - HEVC.CLUB
Encoded date : UTC 2017-10-10 10:26:41
Writing application : mkvmerge v16.0.0 ('Protest') 64-bit
Writing library : libebml v1.3.5 + libmatroska v1.4.8
Cover : Yes
Attachments : Cover.jpg / PapyrusCyr.ttf / tahoma.ttf / Avatar.ttf
Video
ID : 1
Format : HEVC
Format/Info : High Efficiency Video Coding
Format profile : Main [email protected]@High
Codec ID : V_MPEGH/ISO/HEVC
Duration : 2 h 58 min
Bit rate : 9 673 kb/s
Width : 1 920 pixels
Height : 1 078 pixels
Display aspect ratio : 16:9
Frame rate mode : Constant
Frame rate : 23.976 (24000/1001) FPS
Color space : YUV
Chroma subsampling : 4:2:0
Bit depth : 10 bits
Bits/(Pixel*Frame) : 0.195
Stream size : 12.0 GiB (85%)
Title : HEVC.CLUB
Writing library : x265 2.5+20-0967d0add97e:[Windows][GCC 7.2.0][64 bit] 10bit
Encoding settings : cpuid=1173503 / frame-threads=3 / numa-pools=8 / wpp / pmode / no-pme / no-psnr / ssim / log-level=2 / input-csp=1 / input-res=1920x1078 / interlace=0 / total-frames=0 / level-idc=41 / high-tier=1 / uhd-bd=0 / ref=5 / no-allow-non-conformance / repeat-headers / annexb / no-aud / no-hrd / info / hash=0 / no-temporal-layers / open-gop / min-keyint=23 / keyint=250 / bframes=10 / b-adapt=2 / b-pyramid / bframe-bias=0 / rc-lookahead=60 / lookahead-slices=1 / scenecut=40 / no-intra-refresh / ctu=64 / min-cu-size=8 / no-rect / no-amp / max-tu-size=32 / tu-inter-depth=3 / tu-intra-depth=3 / limit-tu=0 / rdoq-level=1 / dynamic-rd=2.00 / no-ssim-rd / signhide / no-tskip / nr-intra=0 / nr-inter=0 / no-constrained-intra / no-strong-intra-smoothing / max-merge=2 / limit-refs=0 / no-limit-modes / me=1 / subme=7 / merange=64 / temporal-mvp / weightp / weightb / no-analyze-src-pics / deblock=-3:-3 / no-sao / no-sao-non-deblock / rd=4 / no-early-skip / no-rskip / no-fast-intra / no-tskip-fast / no-cu-lossless / no-b-intra / no-splitrd-skip / rdpenalty=0 / psy-rd=1.75 / psy-rdoq=2.50 / no-rd-refine / analysis-reuse-mode=0 / no-lossless / cbqpoffs=0 / crqpoffs=0 / rc=crf / crf=22.0 / qcomp=0.80 / qpstep=6 / stats-write=0 / stats-read=0 / vbv-maxrate=50000 / vbv-bufsize=50000 / vbv-init=0.9 / crf-max=0.0 / crf-min=0.0 / ipratio=1.40 / pbratio=1.10 / aq-mode=1 / aq-strength=0.30 / no-cutree / zone-count=0 / no-strict-cbr / qg-size=32 / no-rc-grain / qpmax=69 / qpmin=0 / no-const-vbv / sar=1 / overscan=0 / videoformat=5 / range=0 / colorprim=2 / transfer=2 / colormatrix=2 / chromaloc=0 / display-window=0 / max-cll=0,0 / min-luma=0 / max-luma=1023 / log2-max-poc-lsb=8 / vui-timing-info / vui-hrd-info / slices=1 / opt-qp-pps / opt-ref-list-length-pps / no-multi-pass-opt-rps / scenecut-bias=0.05 / no-opt-cu-delta-qp / aq-motion / no-hdr / no-hdr-opt / no-dhdr10-opt / analysis-reuse-level=5 / scale-factor=0 / refine-intra=0 / refine-inter=0 / refine-mv=0 / no-limit-sao / ctu-info=0
Default : Yes
Forced : Yes
Audio #1
ID : 2
Format : DTS
Format/Info : Digital Theater Systems
Mode : 16
Format settings, Endianness : Big
Codec ID : A_DTS
Duration : 2 h 58 min
Bit rate mode : Constant
Bit rate : 768 kb/s
Channel(s) : 6 channels
Channel positions : Front: L C R, Side: L R, LFE
Sampling rate : 48.0 kHz
Frame rate : 93.750 FPS (512 SPF)
Bit depth : 24 bits
Compression mode : Lossy
Stream size : 979 MiB (7%)
Title : Dub
Language : Russian
Default : Yes
Forced : No
Audio #2
ID : 3
Format : AAC
Format/Info : Advanced Audio Codec
Format profile : LC
Codec ID : A_AAC-2
Duration : 2 h 58 min
Bit rate : 128 kb/s
Channel(s) : 2 channels
Channel positions : Front: L R
Sampling rate : 48.0 kHz
Frame rate : 46.875 FPS (1024 SPF)
Compression mode : Lossy
Stream size : 163 MiB (1%)
Title : Dub
Language : Ukrainian
Default : No
Forced : No
Audio #3
ID : 4
Format : DTS
Format/Info : Digital Theater Systems
Mode : 16
Format settings, Endianness : Big
Codec ID : A_DTS
Duration : 2 h 58 min
Bit rate mode : Constant
Bit rate : 756 kb/s
Channel(s) : 6 channels
Channel positions : Front: L C R, Side: L R, LFE
Sampling rate : 48.0 kHz
Frame rate : 93.750 FPS (512 SPF)
Bit depth : 24 bits
Compression mode : Lossy
Stream size : 963 MiB (7%)
Title : Original
Language : English
Default : No
Forced : No
Text #1
ID : 5
Format : ASS
Codec ID : S_TEXT/ASS
Codec ID/Info : Advanced Sub Station Alpha
Duration : 2 h 46 min
Bit rate : 13 b/s
Count of elements : 219
Compression mode : Lossless
Stream size : 16.3 KiB (0%)
Title : ExtraForced [Stylezed]
Language : Russian
Default : Yes
Forced : No
Text #2
ID : 6
Format : ASS
Codec ID : S_TEXT/ASS
Codec ID/Info : Advanced Sub Station Alpha
Duration : 2 h 53 min
Bit rate : 100 b/s
Count of elements : 1726
Compression mode : Lossless
Stream size : 128 KiB (0%)
Title : ExtraFull [Stylezed]
Language : Russian
Default : No
Forced : No
Text #3
ID : 7
Format : UTF-8
Codec ID : S_TEXT/UTF8
Codec ID/Info : UTF-8 Plain Text
Duration : 2 h 46 min
Bit rate : 11 b/s
Count of elements : 219
Stream size : 13.5 KiB (0%)
Title : ExtraForced
Language : Russian
Default : No
Forced : No
Text #4
ID : 8
Format : UTF-8
Codec ID : S_TEXT/UTF8
Codec ID/Info : UTF-8 Plain Text
Duration : 2 h 53 min
Bit rate : 68 b/s
Count of elements : 1723
Stream size : 87.8 KiB (0%)
Title : ExtraFull
Language : Russian
Default : No
Forced : No
Text #5
ID : 9
Format : UTF-8
Codec ID : S_TEXT/UTF8
Codec ID/Info : UTF-8 Plain Text
Duration : 2 h 46 min
Bit rate : 11 b/s
Count of elements : 219
Stream size : 13.5 KiB (0%)
Title : ExtraForced Colored
Language : Russian
Default : No
Forced : No
Text #6
ID : 10
Format : UTF-8
Codec ID : S_TEXT/UTF8
Codec ID/Info : UTF-8 Plain Text
Duration : 2 h 53 min
Bit rate : 71 b/s
Count of elements : 1723
Stream size : 91.5 KiB (0%)
Title : ExtraFull Colored
Language : Russian
Default : No
Forced : No
Text #7
ID : 11
Format : UTF-8
Codec ID : S_TEXT/UTF8
Codec ID/Info : UTF-8 Plain Text
Duration : 2 h 53 min
Bit rate : 40 b/s
Count of elements : 1683
Stream size : 51.1 KiB (0%)
Title : Full
Language : English
Default : No
Forced : No
Text #8
ID : 12
Format : UTF-8
Codec ID : S_TEXT/UTF8
Codec ID/Info : UTF-8 Plain Text
Duration : 1 h 59 min
Bit rate : 2 b/s
Count of elements : 82
Stream size : 1.80 KiB (0%)
Title : ExtraForced
Language : English
Default : No
Forced : No
Text #9
ID : 13
Format : UTF-8
Codec ID : S_TEXT/UTF8
Codec ID/Info : UTF-8 Plain Text
Duration : 2 h 57 min
Bit rate : 45 b/s
Count of elements : 2203
Stream size : 58.6 KiB (0%)
Title : Full SDH
Language : English
Default : No
Forced : No
Text #10
ID : 14
Format : UTF-8
Codec ID : S_TEXT/UTF8
Codec ID/Info : UTF-8 Plain Text
Duration : 2 h 57 min
Bit rate : 60 b/s
Count of elements : 2203
Stream size : 79.2 KiB (0%)
Title : Full SDH Colored
Language : English
Default : No
Forced : No
Menu
00:00:00.000 : :01. Lost Soul
00:05:25.575 : :02. A New World
00:10:12.278 : :03. You Are Not In Kansas Anymore
00:11:47.916 : :04. "This Is Your Avatar Now, Jake."
00:15:59.208 : :05. "This Is Why We're Here..."
00:17:54.782 : :06. First Awakening
00:23:54.892 : :07. Colonel Quaritch
00:27:54.548 : :08. First Sortie
00:30:27.617 : :09. Abandoned Schoolhouse
00:32:27.904 : :10. Thanator Chase
00:37:16.526 : :11. A Sign
00:39:08.054 : :12. Viperwolves
00:41:18.476 : :13. Neytiri
00:49:16.912 : :14. The Omaticaya Clan
00:55:42.214 : :15. Cover Report
01:01:09.416 : :16. The Hallelujah Mountains
01:07:03.228 : :17. Learn Fast Or Die
01:11:50.223 : :18. A Mother's Pain
01:15:53.799 : :19. Banshee Rookery
01:22:38.120 : :20. First Flight
01:26:12.709 : :21. Clan Hunt
01:27:42.299 : :22. Last Shadow
01:33:00.408 : :23. A Son Of The Omaticaya
01:37:36.893 : :24. Willow Glade Destruction
01:44:15.291 : :25. Conflict Escalation
01:50:02.596 : :26. "You Will Never Be One Of The People!"
01:51:53.582 : :27. Assault On Hometree
01:58:30.895 : :28. Aftermath
02:02:13.284 : :29. Escape From Hell's Gate
02:07:51.664 : :30. There's Something We Gotta Do..."
02:09:30.554 : :31. Toruk Macto
02:12:36.615 : :32. "She's Real"
02:16:03.364 : :33. Recruiting The Clans
02:19:31.655 : :34. Preamble To Battle
02:23:59.631 : :35. Battle For Pandora
02:30:05.079 : :36. Fall Of The Heroes
02:33:56.853 : :37. Eywa
02:40:02.259 : :38. Quaritch Fight
02:45:33.215 : :39. "I See You"
02:46:48.498 : :40. My Brother
02:48:56.793 : :41. Transformation
02:51:32.073 : :42. End Credits

Скриншоты


 
Похожие темы
Форум Тема Автор Размер
HD Аватар / Avatar (2009) BDRemux 1080p | D, A, L1 bot 50,63 GB
Показать сообщения:    
Ответить на тему

Текущее время: 18-Окт 21:19

Часовой пояс: UTC + 3



Вы не можете начинать темы
Вы не можете отвечать на сообщения
Вы не можете редактировать свои сообщения
Вы не можете удалять свои сообщения
Вы не можете голосовать в опросах
Вы не можете прикреплять файлы к сообщениям
Вы не можете скачивать файлы